Download Karwaan (2018) Hindi 720p HDRip 850Mb

Download Karwaan (2018) Hindi 720p HDRip 850Mb
Karwaan (2018) Hindi Movie Poster,Images,Picture,Pics,Screenshots

Download Karwaan (2018) Hindi 720p HDRip 850Mb,Download Karwaan (2018) Hindi full movie in hd for free,download Karwaan (2018) Hindi movie in hd 720p,Karwaan (2018) Hindi full movie download in hd print,download Karwaan (2018) Hindi,Download Karwaan (2018) Hindi 1Gb, Download Karwaan (2018) Hindi 720p HDRip 850Mb,Karwaan (2018) Hindi movie in 1080p 720p 480p,Karwaan (2018) Hindi movie download full hd in 300 mb,Karwaan (2018) Hindi movie download in 300MB,Karwaan (2018) Hindi full movie download in hd for pc for free,Karwaan (2018) Hindi Movie In hd, Download Karwaan (2018) Hindi Movie in Full hd,

Download Karwaan (2018) Hindi 720p HDRip 850Mb
Mulk (2018) Hindi Movie Poster,Images,Picture,Pics,Screenshots

IMDB Ratings: 8.1/10
Genres: Comedy , Drama
Language: Hindi
Quality: 720p HDRip
Size: 850mb
Director: Akarsh Khurana
Writers: Bejoy Nambiar, Akarsh Khurana
Stars: Irrfan Khan, Dulquer Salmaan, Mithila Palk

Storyline==}} The movie depicts a journey carried out from Bangalore to Kochi by two friends, the reserved Avinash played by Dulquer Salmaan, and his friend Shaukat played by Irrfan Khan with a lighter take on life, who pick up the chirpy teenager Mithila on the way.Download Karwaan (2018) Hindi 720p HDRip 850Mb

Download Karwaan (2018) Hindi 720p HDRip 850Mb
Mulk (2018) Hindi Movie Poster,Images,Picture,Pics,Screenshots
Download Karwaan (2018) Hindi 720p HDRip 850Mb
Karwaan (2018) Hindi Movie Poster,Images,Picture,Pics,Screenshots

Download Karwaan (2018) Hindi 720p HDRip 850Mb

Download Links

Download From Openload
Download From Clicknupload
Download from Desiupload

Visit Our Other Popular Post To Related This

Download Dashing Diljala 2018 Hindi Dubbed 720p HDRip 850Mb
Ant Man And The Wasp (2018) Dual Audio [Hindi Cleaned Eng] HDRip 720p x264 ESubs 1Gb
Download Mulk (2018) Hindi 720p HDRip x264 AAC 1.2Gb
Download Dhadak (2018) Hindi 720p HDRip x264 950Mb
Jurassic World Fallen Kingdom (2018) Hindi ORG Dual Audio 720p BluRay 1GB
Download Sui Dhaaga Made in India (2018) Hindi PDVDRip x264 AAC 700MB
Power Unlimited 2 (Touch Chesi Chudu) 2018 Dual Audio 480p HDRip [Hindi Telugu]
18+ X X X Uncensored (2018) S01 All 5 Episodes Hindi 720p HDRip x264 800mb
Power Unlimited 2 (Touch Chesi Chudu) 2018 Dual Audio 720p HDRip [Hindi Telugu]
Download Akira (2016) 720p UNCUT HDRip x264 [Dual Audio] [Hindi Telugu]
Zhongkui Snow Girl and the Dark Crystal (2015) Dual Audio 720p HDRip [Hindi Chinese] 1Gb
Download Saheb Biwi Aur Gangster 3 2018 Hindi 350MB HDRip 480p
Download Saheb Biwi Aur Gangster 3 2018 Hindi 720p HDRip 1Gb
Download Batti Gul Meter Chalu 2018 Hindi PreDvd Rip 700MB
Download Laila Majnu 2018 Hindi DVDScr 700MB x264 Full Movie
Download Mitron 2018 Hindi DVDScr 700 MB Free Moviesjug
Download Manmarziyaan 2018 Hindi pDVDRip 700MB- Moviesjug
Download Genius (2018) Propper Audio Hindi 720p HDRip x264 1.4GB ESubs
Rampage (2018) Dual Audio ORG 720p BRRip Hindi English DD 5.1ch 1GB
Click Here For Bing.com Searchengine
Click Here For Google.co.in
Click Here For Youtube.com

Video And Audio Full Details (Properties)

General
Download Karwaan (2018) Hindi 720p HDRip 850Mb.MKV
Format : Matroska
Format version : Version 4 / Version 2
File size : 848 MiB
Duration : 1 h 53 min
Overall bit rate : 1 040 kb/s
Movie name : Download Karwaan (2018) Hindi 720p HDRip 850Mb

Video
ID : 1
Format : AVC
Format/Info : Advanced Video Codec
Format profile : [email protected]
Format settings : CABAC / 4 Ref Frames
Format settings, CABAC : Yes
Format settings, RefFrames : 4 frames
Codec ID : V_MPEG4/ISO/AVC
Duration : 1 h 53 min
Bit rate : 920 kb/s
Width : 1 280 pixels
Height : 544 pixels
Display aspect ratio : 2.35:1
Frame rate mode : Variable
Frame rate : 23.976 FPS
Color space : YUV
Chroma subsampling : 4:2:0
Bit depth : 8 bits
Scan type : Progressive
Bits/(Pixel*Frame) : 0.055
Stream size : 741 MiB (87%)
Title : Download Karwaan (2018) Hindi 720p HDRip 850Mb
Language : Hindi
Default : Yes
Forced : No
Color range : Limited
Color primaries : BT.709

Audio
ID : 2
Format : AAC
Format/Info : Advanced Audio Codec
Format profile : LC
Codec ID : A_AAC-2
Duration : 1 h 53 min
Bit rate : 128 kb/s
Channel(s) : 2 channels
Channel positions : Front: L R
Sampling rate : 22.05 kHz
Frame rate : 21.533 FPS (1024 SPF)
Compression mode : Lossy
Delay relative to video : -46 ms
Stream size : 105 MiB (12%)
Title : Download Karwaan (2018) Hindi 720p HDRip 850Mb
Language : Hindi
Default : Yes
Forced : No

Download Karwaan (2018) Hindi 720p HDRip 850Mb

Download Karwaan (2018) Hindi 720p HDRip 850Mb

Download Karwaan (2018) Hindi 720p HDRip 850Mb

Leave a Reply

Your email address will not be published. Required fields are marked *