Download Kanchana 3 (Anando Brahma) (2018) Hindi Dubbed 480p HDRip 400 MB

Download Kanchana 3 (Anando Brahma) (2018) Hindi Dubbed 480p HDRip 400 MB
Download Kanchana 3 (Anando Brahma) (2018) Hindi Dubbed 480p HDRip 400 MB

download-kanchana-3-anando-brahma-2018-hindi-dubbed-480p HDRip 400 MB hd download, kanchana 3 full hd movie download, Kanchana 3 hindi dubbed full movie download in hd,kanchan 3 hindi dubbed full movie Download 720p hd 480p hd 1080p hd, Download Kanchana 3 (Anando Brahma) (2018) Hindi Dubbed 480p HDRip 400 MB

IMDB : 7.0/10 – 279 votes
Directed by : Mahi V Raghav
 Produced by : Vijay Chilla
Shashi Devireddy
Written by : Mahi V Raghav
Starring : Taapsee Pannu,Vennela Kishore,Srinivas Reddy,Rajiv Kanakala
Language: Hindi
Quality: 480p HDRip
Size: 400MB
Release date : 10 August 2017
Country : India

Storyline ==} An NRI wants to sell his ancestral home, but later hears rumours of it being haunted. Unwilling to sell the property at a throwaway price, he asks a team of four guys to spend a night in the house and prove that it isn’t a ghost den.

Download Kanchana 3 (Anando Brahma) (2018) Hindi Dubbed 480p HDRip 400 MB
Download Kanchana 3 (Anando Brahma) (2018) Hindi Dubbed 480p HDRip 400 MB
Download Kanchana 3 (Anando Brahma) (2018) Hindi Dubbed 480p HDRip 400 MB
Download Kanchana 3 (Anando Brahma) (2018) Hindi Dubbed 480p HDRip 400 MB

Download Links

Download From Clicknupload
Download From Bdupload
Download From Openload.co
Download From Usercloud
Download from Filebebo
Download From Uptobox
Download from Indishare

Description

General
Dubbed 480p HDRip 400 MB E Subs.mp4
Format : MPEG-4
Format profile : Base Media / Version 2
Codec ID : mp42 (isom/mp42)
File size : 397 MiB
Duration : 1 h 56 min
Overall bit rate mode : Variable
Overall bit rate : 477 kb/s

Video
ID : 1
Format : AVC
Format/Info : Advanced Video Codec
Format profile : [email protected]
Format settings : 1 Ref Frames
Format settings, CABAC : No
Codec ID : avc1
Codec ID/Info : Advanced Video Coding
Duration : 1 h 56 min
Bit rate : 379 kb/s
Width : 640 pixels
Height : 360 pixels
Display aspect ratio : 16:9
Frame rate mode : Constant
Frame rate : 25.000 FPS
Color space : YUV
Stream size : 315 MiB (79%)
Title : ISO Media file produced by Google Inc. Created on: 07/14/2018.
Encoded date : UTC 2018-07-14 12:06:29
Tagged date : UTC 2018-07-14 12:06:29
Color range : Limited
Color primaries : BT.709
Transfer characteristics : BT.709
Matrix coefficients : BT.709

Audio
ID : 2
Format : AAC
Format/Info : Advanced Audio Codec
Format profile : LC
Codec ID : mp4a-40-2
Duration : 1 h 56 min
Bit rate mode : Variable
Bit rate : 96.0 kb/s
Channel(s) : 2 channels
Channel positions : Front: L R
Sampling rate : 44.1 kHz
Frame rate : 43.066 FPS (1024 SPF)
Compression mode : Lossy
Stream size : 79.8 MiB (20%)

Click Here For Bing.com Searchengine
Click Here For Google.co.in
Click Here For Youtube.com
Click Here For Download sanju 2018 Hindi Movie HD
Clcick Here For Download Rampage 2018 Dual Audio HD Movie
Click Here For Download Soorma (2018) Hindi pDVDRip x264 AAC 700 MB

Download Kanchana 3 (Anando Brahma) (2018) Hindi Dubbed 480p HDRip 400 MB

download-kanchana-3-anando-brahma-2018-hindi-dubbed-480p

Leave a Reply

Your email address will not be published. Required fields are marked *