Download Jalebi 2018 Hindi Full Movie PDVDRip 700MB Free Moviesjug

Download Jalebi (2018) Hindi Full Movie 720p HDRip 800 MB Free Moviesjug

 

Download Jalebi 2018 Hindi Full Movie PDVDRip 700MB Free Moviesjug
Jalebi (2018) Hindi Movie Poster,Images,Pictures,Pics,Screenshots,Posters,

Download Jalebi 2018 Hindi Full Movie PDVDRip 700MB Free Moviesjug,Download Jalebi full movie in hd for free,download Jalebi movie in hd 720p,Jalebi full movie download in hd print,download Jalebi movie in 1080p 720p 480p,Jalebi movie download full hd in 300 mb,Jalebi movie download in 700MB,Jalebi full movie download in hd for pc for free,Jalebi full movie download 720p openload,download full movie in hindi Jalebi 480p,Jalebi movie download openload,Jalebi full movie download,Jalebi movie in 480p,Jalebi free download full movie 700mb,Jalebi movie download 720p mb,Jalebi full movie download in 300mb,Jalebi full movie download 480p free,Jalebi  full movie hd 480p download,Download Jalebi 2018 Hindi PDVDRip 700MB Free Moviesjug,
download full hindi movie Jalebi 720p 700mb,Jalebi full movie download free,Jalebi movie download 720p,new movie Jalebi Jalebee Jalabi Jallebi Jallabi jalebbi full hindi hd print download

Download Jalebi 2018 Hindi Full Movie PDVDRip 700MB Free Moviesjug
Jalebi (2018) Hindi Movie Poster,Images,Pictures,Pics,Screenshots,Posters,

IMDB Ratings: 6.4/46
Directed: Pushpdeep Bhardwaj
Released Date: 12 October 2018 (India)
Genres: Romance, Drama,
Languages: Hindi
Film Stars: Rhea Chakraborty, Farida Dadi, Praveena Deshpande
Movie Quality: PDVDRip
File Size: 700MB

Storyline==}} Jalebi: The Everlasting Taste of Love is an upcoming Indian romantic drama film directed by Pushpdeep Bhardwaj. It stars Rhea Chakraborty, debutant Varun Mitra and Digangana Suryavanshi in lead roles.(Download Jalebi 2018 Hindi Full Movie PDVDRip 700MB Free Moviesjug)

Download Jalebi 2018 Hindi Full Movie PDVDRip 700MB Free Moviesjug
Jalebi (2018) Hindi Movie Poster,Images,Pictures,Pics,Screenshots,Posters,
Download Jalebi 2018 Hindi Full Movie PDVDRip 700MB Free Moviesjug
Download Jalebi 2018 Hindi Full Movie PDVDRip 700MB Free Moviesjug

-=Download Links=-

Download Jalebi 2018 Hindi Full Movie PDVDRip 700MB Free Moviesjug
Jalebi (2018) Hindi Movie Poster,Images,Pictures,Pics,Screenshots,Posters,

Download Jalebi (2018) Hindi Full Movie 720p HDRip 800 MB Free Moviesjug

-=Watch Online Links=-

Download Jalebi (2018) Hindi Full Movie 720p WEB DL 800 MB Free Moviesjug

Watch Online From Vidoza
Download From Openload

-=Download Links=-

Download Jalebi (2018) Hindi Full Movie 720p WEB DL 800 MB Free Moviesjug

Download From Openload
Download From Filerio
Watch Online From Vidoza

Thanks for Downloading……

Download Jalebi 2018 Hindi Full Movie PDVDRip 700MB Free Moviesjug
Jalebi (2018) Hindi Movie Poster,Images,Pictures,Pics,Screenshots,Posters,

Visit Our Other Popular Post To Related This

Haseena (2018) Hindi AAC 720p HDRip x264 900 MB
Download Karwaan (2018) Hindi 720p HDRip 850Mb
Ant Man And The Wasp (2018) Dual Audio [Hindi Cleaned Eng] HDRip 720p x264 ESubs 1Gb
Download Dashing Diljala 2018 Hindi Dubbed 720p HDRip 850Mb
Download Mulk (2018) Hindi 720p HDRip x264 AAC 1.2Gb
Download Dhadak (2018) Hindi 720p HDRip x264 950Mb
Jurassic World Fallen Kingdom (2018) Hindi ORG Dual Audio 720p BluRay 1GB
Download Sui Dhaaga Made in India (2018) Hindi PDVDRip x264 AAC 700MB
Power Unlimited 2 (Touch Chesi Chudu) 2018 Dual Audio 480p HDRip [Hindi Telugu]
18+ X X X Uncensored (2018) S01 All 5 Episodes Hindi 720p HDRip x264 800mb
Power Unlimited 2 (Touch Chesi Chudu) 2018 Dual Audio 720p HDRip [Hindi Telugu]
Download Akira (2016) 720p UNCUT HDRip x264 [Dual Audio] [Hindi Telugu]
Zhongkui Snow Girl and the Dark Crystal (2015) Dual Audio 720p HDRip [Hindi Chinese] 1Gb
Download Saheb Biwi Aur Gangster 3 2018 Hindi 350MB HDRip 480p
Download Saheb Biwi Aur Gangster 3 2018 Hindi 720p HDRip 1Gb
Download Batti Gul Meter Chalu 2018 Hindi PreDvd Rip 700MB
Download Laila Majnu 2018 Hindi DVDScr 700MB x264 Full Movie
Download Mitron 2018 Hindi DVDScr 700 MB Free Moviesjug
Download Manmarziyaan 2018 Hindi pDVDRip 700MB- Moviesjug
Download Genius (2018) Propper Audio Hindi 720p HDRip x264 1.4GB ESubs
Rampage (2018) Dual Audio ORG 720p BRRip Hindi English DD 5.1ch 1GB
Click Here For Bing.com Searchengine
Click Here For Google.co.in
Click Here For Youtube.com

Soorma Movie Video And Audio Full Details (Properties)

General

Jalebi full movie download,Jalebi movie in 480p,Jalebi free download full movie 700mb,Jalebi movie download 720p mb,Jalebi full movie download in 300mb,Jalebi full movie download 480p free,Jalebi  full movie hd 480p download,Download Jalebi 2018 Hindi PDVDRip 700MB Free Moviesjug,
download full hindi movie Jalebi 720p 700mb,Jalebi full movie download free,Jalebi movie download 720p,new movie Jalebi Jalebee Jalabi Jallebi Jallabi jalebbi full hindi hd print download

Download Jalebi 2018 Hindi Full Movie PDVDRip 700MB Free Moviesjug
Format : Matroska
Format version : Version 4 / Version 2
File size : 1.22 GiB
Duration : 2 h 10 min
Overall bit rate : 1 330 kb/s
Movie name : Download Jalebi 2018 Hindi Full Movie PDVDRip 700MB Free Moviesjug

Video
Jalebi movie download full hd in 300 mb,Jalebi movie download in 700MB,Jalebi full movie download in hd for pc for free,Jalebi full movie download 720p openload,download full movie in hindi Jalebi 480p,Jalebi movie download openload ,Download Jalebi 2018 Hindi Full Movie PDVDRip 700MB Free Moviesjug

ID : 1
Format : AVC
Format/Info : Advanced Video Codec
Format profile : [email protected]
Format settings : CABAC / 4 Ref Frames
Format settings, CABAC : Yes
Format settings, RefFrames : 4 frames
Codec ID : V_MPEG4/ISO/AVC
Duration : 2 h 10 min
Bit rate : 1 280 kb/s
Width : 1 280 pixels
Height : 544 pixels
Display aspect ratio : 2.35:1
Frame rate mode : Constant
Frame rate : 24.000 FPS
Color space : YUV
Chroma subsampling : 4:2:0
Bit depth : 8 bits
Scan type : Progressive
Bits/(Pixel*Frame) : 0.077
Stream size : 1.15 GiB (95%)
Title : Download Jalebi 2018 Hindi Full Movie PDVDRip 700MB Free Moviesjug
Language : Hindi
Default : Yes
Forced : No
Color range : Limited
Color primaries : BT.709
Transfer characteristics : BT.709
Matrix coefficients : BT.709

Audio
Download Jalebi 2018 Hindi Full Movie PDVDRip 700MB Free Moviesjug,Download Jalebi full movie in hd for free,download Jalebi movie in hd 720p,Jalebi full movie download in hd print,download Jalebi movie in 1080p 720p 480p,Download Jalebi 2018 Hindi Full Movie PDVDRip 700MB Free Moviesjug

ID : 3
Format : MPEG Audio
Format version : Version 1
Format profile : Layer 3
Format settings : Joint stereo / MS Stereo
Codec ID : A_MPEG/L3
Codec ID/Hint : MP3
Duration : 2 h 10 min
Bit rate mode : Constant
Bit rate : 64.0 kb/s
Channel(s) : 2 channels
Sampling rate : 44.1 kHz
Frame rate : 38.281 FPS (1152 SPF)
Compression mode : Lossy
Delay relative to video : -21 ms
Stream size : 59.9 MiB (5%)
Title : Download Jalebi 2018 Hindi Full Movie PDVDRip 700MB Free Moviesjug
Writing library : LAMEUUULAME3.98.2
Language : Hindi
Default : Yes
Forced : No

Text
ID : 2
Format : UTF-8
Codec ID : S_TEXT/UTF8
Codec ID/Info : UTF-8 Plain Text
Duration : 2 h 10 min
Bit rate : 61 b/s
Count of elements : 1805
Stream size : 58.9 KiB (0%)
Title : Download Jalebi 2018 Hindi Full Movie PDVDRip 700MB Free Moviesjug
Language : English
Default : Yes
Forced : No

Fanney Khan Movie Video And Audio Full Details (Properties)

General
Download Jalebi 2018 Hindi Full Movie PDVDRip 700MB Free Moviesjug,Download Jalebi full movie in hd for free,download Jalebi movie in hd 720p,Jalebi full movie download in hd print,download Jalebi movie in 1080p 720p 480p,Download Jalebi 2018 Hindi Full Movie PDVDRip 700MB Free Moviesjug

Download Jalebi 2018 Hindi Full Movie PDVDRip 700MB Free Moviesjug
Format : Matroska
Format version : Version 4 / Version 2
File size : 1.26 GiB
Duration : 2 h 9 min
Overall bit rate : 1 399 kb/s
Movie name : Download Jalebi 2018 Hindi Full Movie PDVDRip 700MB Free Moviesjug

Video
Jalebi full movie download,Jalebi movie in 480p,Jalebi free download full movie 700mb,Jalebi movie download 720p mb,Jalebi full movie download in 300mb,Jalebi full movie download 480p free,Jalebi  full movie hd 480p download,Download Jalebi 2018 Hindi PDVDRip 700MB Free Moviesjug,
download full hindi movie Jalebi 720p 700mb,Jalebi full movie download free,Jalebi movie download 720p,new movie Jalebi Jalebee Jalabi Jallebi Jallabi jalebbi full hindi hd print download

ID : 1
Format : AVC
Format/Info : Advanced Video Codec
Format profile : [email protected]
Format settings : CABAC / 4 Ref Frames
Format settings, CABAC : Yes
Format settings, RefFrames : 4 frames
Codec ID : V_MPEG4/ISO/AVC
Duration : 2 h 9 min
Bit rate : 1 384 kb/s
Width : 1 280 pixels
Height : 544 pixels
Display aspect ratio : 2.35:1
Frame rate mode : Constant
Frame rate : 23.976 (23976/1000) FPS
Color space : YUV
Chroma subsampling : 4:2:0
Bit depth : 8 bits
Scan type : Progressive
Bits/(Pixel*Frame) : 0.083
Stream size : 1.23 GiB (98%)
Title : Download Jalebi 2018 Hindi Full Movie PDVDRip 700MB Free Moviesjug
Language : Hindi
Default : Yes
Forced : No
Color range : Limited
Color primaries : BT.709
Transfer characteristics : BT.709
Matrix coefficients : BT.709

Audio
Jalebi movie download full hd in 300 mb,Jalebi movie download in 700MB,Jalebi full movie download in hd for pc for free,Jalebi full movie download 720p openload,download full movie in hindi Jalebi 480p,Jalebi movie download openload ,Download Jalebi 2018 Hindi Full Movie PDVDRip 700MB Free Moviesjug

ID : 3
Format : AAC
Format/Info : Advanced Audio Codec
Format profile : LC
Codec ID : A_AAC-2
Duration : 2 h 9 min
Bit rate : 32.2 kb/s
Channel(s) : 2 channels
Channel positions : Front: L R
Sampling rate : 44.1 kHz
Frame rate : 43.066 FPS (1024 SPF)
Compression mode : Lossy
Delay relative to video : -23 ms
Stream size : 29.8 MiB (2%)
Title : Download Jalebi 2018 Hindi Full Movie PDVDRip 700MB Free Moviesjug
Language : Hindi
Default : Yes
Forced : No

Text
ID : 2
Format : UTF-8
Codec ID : S_TEXT/UTF8
Codec ID/Info : UTF-8 Plain Text
Duration : 2 h 6 min
Bit rate : 49 b/s
Count of elements : 2041
Stream size : 45.6 KiB (0%)
Title : Download Jalebi 2018 Hindi Full Movie PDVDRip 700MB Free Moviesjug
Language : English
Default : Yes
Forced : No

Download Jalebi 2018 Hindi Full Movie PDVDRip 700MB Free Moviesjug

Download Jalebi 2018 Hindi Full Movie PDVDRip 700MB Free Moviesjug

Download Jalebi 2018 Hindi Full Movie PDVDRip 700MB Free Moviesjug

Summary
Article Name
Download Jalebi 2018 Hindi Full Movie PDVDRip 700MB Free Moviesjug
Description
Download Jalebi 2018 Hindi Full Movie PDVDRip 700MB Free Moviesjug,Download Jalebi full movie in hd for free,download Jalebi movie in hd 720p,Jalebi full movie download in hd print,download Jalebi movie in 1080p 720p 480p,Jalebi movie download full hd in 300 mb,Jalebi movie download in 700MB,Jalebi full movie download in hd for pc for free,Jalebi full movie download 720p openload,download full movie in hindi Jalebi 480p,Jalebi movie download openload
Author
Publisher Name
Moviesjug.net

Leave a Reply

Your email address will not be published. Required fields are marked *