Download Jalebi (2018) Hindi Full Movie 720p HDRip 800 MB Free Moviesjug

Download Jalebi (2018) Hindi Full Movie 720p HDRip 800 MB Free Moviesjug

Download Jalebi (2018) Hindi Full Movie 720p WEB DL 800 MB Free Moviesjug,Download Jalebi full movie in hdrip for free,download Jalebi movie in hdrip 720p,Jalebi full movie download in hdrip print,download Jalebi movie in 1080p 720p 480p hdrip ,Jalebi movie download hdrip full hd in 300 mb filmywap,Jalebi movie download in hdrip 700MB openload,Jalebi full movie download in hdrip for pc for free,Jalebi full movie download in hfrip print 720p openload,download full movie in hindi hdrip Jalebi 480p,Fryday movie download in full hd openload,Jalebi movie download hdrip,Jalebi movie hdrip in 480p,Download Jalebi (2018) Hindi Full Movie 720p WEB DL 800 MB Free Moviesjug

Download Jalebi (2018) Hindi Full Movie 720p WEB DL 800 MB Free Moviesjug

IMDB Ratings: 5.5/10 [ Votes 206]
Directed: Pushpdeep Bhardwaj
Released Date: 12 October 2018 (India)
Genres: Romance, Drama,
Languages: Hindi
Film Stars: Rhea Chakraborty, Farida Dadi, Praveena Deshpande
Movie Quality: WEB DL
File Size: 800 MB

Storyline==}} Jalebi: The Everlasting Taste of Love is an upcoming Indian romantic drama film directed by Pushpdeep Bhardwaj. It stars Rhea Chakraborty, debutant Varun Mitra and Digangana Suryavanshi in lead roles.(Download Jalebi (2018) Hindi Full Movie 720p WEB DL 800 MB Free Moviesjug)

Download Jalebi (2018) Hindi Full Movie 720p WEB DL 800 MB Free Moviesjug

Download Jalebi (2018) Hindi Full Movie 720p WEB DL 800 MB Free Moviesjug

Download Jalebi (2018) Hindi Full Movie 720p WEB DL 800 MB Free Moviesjug

-=Watch Online Links=-

Download Jalebi (2018) Hindi Full Movie 720p WEB DL 800 MB Free Moviesjug

Watch Online From Vidoza
Download From Openload

-=Download Links=-

Download Jalebi (2018) Hindi Full Movie 720p WEB DL 800 MB Free Moviesjug

                                “Direct Download Link” Download In 1 Click
Download From Openload
Download From Filerio
Watch Online From Vidoza
Watch Online From TusFiles
Download From Desiupload
Download From Clicknupload
Download From Uploadfiles

Thanks for Downloading……

Download Jalebi 2018 Hindi Full Movie PDVDRip 700MB Free Moviesjug
Jalebi (2018) Hindi Movie Poster,Images,Pictures,Pics,Screenshots,Posters,

Visit Our Other Popular Post To Related This

Haseena (2018) Hindi AAC 720p HDRip x264 900 MB
Download Karwaan (2018) Hindi 720p HDRip 850Mb
Ant Man And The Wasp (2018) Dual Audio [Hindi Cleaned Eng] HDRip 720p x264 ESubs 1Gb
Download Dashing Diljala 2018 Hindi Dubbed 720p HDRip 850Mb
Download Mulk (2018) Hindi 720p HDRip x264 AAC 1.2Gb
Download Dhadak (2018) Hindi 720p HDRip x264 950Mb
Jurassic World Fallen Kingdom (2018) Hindi ORG Dual Audio 720p BluRay 1GB
Download Sui Dhaaga Made in India (2018) Hindi PDVDRip x264 AAC 700MB
Power Unlimited 2 (Touch Chesi Chudu) 2018 Dual Audio 480p HDRip [Hindi Telugu]
18+ X X X Uncensored (2018) S01 All 5 Episodes Hindi 720p HDRip x264 800mb
Power Unlimited 2 (Touch Chesi Chudu) 2018 Dual Audio 720p HDRip [Hindi Telugu]
Download Akira (2016) 720p UNCUT HDRip x264 [Dual Audio] [Hindi Telugu]
Zhongkui Snow Girl and the Dark Crystal (2015) Dual Audio 720p HDRip [Hindi Chinese] 1Gb
Download Saheb Biwi Aur Gangster 3 2018 Hindi 350MB HDRip 480p
Download Saheb Biwi Aur Gangster 3 2018 Hindi 720p HDRip 1Gb
Download Batti Gul Meter Chalu 2018 Hindi PreDvd Rip 700MB
Download Laila Majnu 2018 Hindi DVDScr 700MB x264 Full Movie
Download Mitron 2018 Hindi DVDScr 700 MB Free Moviesjug
Download Manmarziyaan 2018 Hindi pDVDRip 700MB- Moviesjug
Download Genius (2018) Propper Audio Hindi 720p HDRip x264 1.4GB ESubs
Rampage (2018) Dual Audio ORG 720p BRRip Hindi English DD 5.1ch 1GB
Click Here For Bing.com Searchengine
Click Here For Google.co.in
Click Here For Youtube.com

Video And Audio Full Details (Properties)

General
Download Jalebi (2018) Hindi Full Movie 720p HDRip 800 MB Free Moviesjug
Format : Matroska
Format version : Version 4 / Version 2
File size : 815 MiB
Duration : 1 h 43 min
Overall bit rate : 1 097 kb/s
Movie name : Download Jalebi (2018) Hindi Full Movie 720p HDRip 800 MB Free Moviesjug

Video
ID : 1
Format : AVC
Format/Info : Advanced Video Codec
Format profile : [email protected]
Format settings : CABAC / 4 Ref Frames
Format settings, CABAC : Yes
Format settings, RefFrames : 4 frames
Codec ID : V_MPEG4/ISO/AVC
Duration : 1 h 43 min
Bit rate : 980 kb/s
Width : 1 280 pixels
Height : 544 pixels
Display aspect ratio : 2.35:1
Frame rate mode : Constant
Frame rate : 23.976 (24000/1001) FPS
Color space : YUV
Chroma subsampling : 4:2:0
Bit depth : 8 bits
Scan type : Progressive
Bits/(Pixel*Frame) : 0.059
Stream size : 719 MiB (88%)
Title : Download Jalebi (2018) Hindi Full Movie 720p HDRip 800 MB Free Moviesjug
Language : Hindi
Default : Yes
Forced : No
Color range : Limited
Color primaries : BT.709
Transfer characteristics : BT.709
Matrix coefficients : BT.709

Audio
ID : 2
Format : AAC
Format/Info : Advanced Audio Codec
Format profile : LC
Codec ID : A_AAC-2
Duration : 1 h 43 min
Bit rate : 128 kb/s
Channel(s) : 2 channels
Channel positions : Front: L R
Sampling rate : 22.05 kHz
Frame rate : 21.533 FPS (1024 SPF)
Compression mode : Lossy
Delay relative to video : -46 ms
Stream size : 95.0 MiB (12%)
Title : Download Jalebi (2018) Hindi Full Movie 720p HDRip 800 MB Free Moviesjug
Language : Hindi
Default : Yes
Forced : No

Download Jalebi (2018) Hindi Full Movie 720p WEB DL 800 MB Free Moviesjug

Download Jalebi (2018) Hindi Full Movie 720p WEB DL 800 MB Free Moviesjug

Download Jalebi (2018) Hindi Full Movie 720p WEB DL 800 MB Free Moviesjug

Summary
Article Name
Download Jalebi (2018) Hindi Full Movie 720p WEB DL 800 MB Free Moviesjug
Description
Jalebi movie download hdrip full hd in 300 mb filmywap,Jalebi movie download in hdrip 700MB openload,Jalebi full movie download in hdrip for pc for free,Jalebi full movie download in hfrip print 720p openload
Author
Publisher Name
Moviesjug.net

Leave a Reply

Your email address will not be published. Required fields are marked *