Download Indian Idol Season 10 Episode 33 27 October 2018 HDTV 720p 800Mb

Download Indian Idol Season 10 Episode 33 27 October 2018 HDTV 720p 800Mb
Download Indian Idol Season 10 Episode 33 27 October 2018 HDTV 720p 800Mb

Download Indian Idol Season 10 Episode 33 27 October 2018 HDTV 720p 800Mb, salim sulaiman in  Special indian idol episode download,new indian idol episode download, indian idol so10 ep 33 download in hd for free, indian idol season 10 episode 33 28st October 2018 download free in full hd,indian idol 2018 episode 33 download for android, indian idol 2018 season 10 edisode 33 download 720p 480p hd, indian idol season 10 episode 33 full show download, indean ideal 10 2018 download,Download Indian Idol Ep 33 27th October 2018,Download Indian Idol Latest Episode in Hd,Download Indian Idol Ep33 27 October 2018 Openload,Fan Special in indian idol full episode download in hd openload 720p 480p

Download Indian Idol Season 10 Episode 33 27 October 2018 HDTV 720p 800Mb
Download Indian Idol Season 10 Episode 33 27 October 2018 HDTV 720p 800Mb

Show Name : Indian Idol Season 10 2018
Genres: Reality Singing Show
Language: Hindi
Quality: 720p HDTV
Size: 841mb
Judges: Neha Kakkar, Anu Malik, Vishal Dadlani
Host : Maniesh Paul
Stars: Fan Special

Storyline==}} The 10th season of Indian Idol is going to be aired on Sony TV from 7 July 2018 after a gap of two years.The Judges for this season are Anu Malik, Vishal Dadlani and Neha Kakkar. In fact Neha Kakkar was one of the contestants in Season 2 of Indian Idol who got eliminated in Gala Round. Today she is an established singer in the industry. Manish Paul will be the host of the show this season. In past, he was a popular host of dance reality show, Jhalak Dikhla Jaa and had hosted the show for five consecutive seasons.(Download Indian Idol Season 10 Episode 33 27 October 2018 HDTV 720p 800Mb)

Download Indian Idol Season 10 Episode 33 27 October 2018 HDTV 720p 800Mb
Download Indian Idol Season 10 Episode 33 27 October 2018 HDTV 720p 800Mb
Download Indian Idol Season 10 Episode 33 27 October 2018 HDTV 720p 800Mb
Download Indian Idol Season 10 Episode 33 27 October 2018 HDTV 720p 800Mb

Download Indian Idol Season 10 Episode 33 27 October 2018 HDTV 720p 800Mb

-=Download Links=-

Download Indian Idol Season 10 Episode 33 27 October 2018 HDTV 720p 800Mb
Download Indian Idol Season 10 Episode 33 27 October 2018 HDTV 720p 800Mb

Download From Openload
Download From Clicknupload
Download From Desiupload
Download From Uploadfiles

Thanks for Downloading…………

Download Indian Idol Season 10 Episode 33 27 October 2018 HDTV 720p 800Mb
Download Indian Idol Season 10 Episode 33 27 October 2018 HDTV 720p 800Mb

Visit Our Other Popular Post To Related This

Downlolad Sanju (2018) Hindi HDTVRip 480p x264 400 MB ESub Free
Download Jalebi 2018 Hindi Full Movie PDVDRip 700MB Free Moviesjug
Download Mitron 2018 Hindi DVDScr 700 MB Free Moviesjug
Download Fryday 2018 Hindi Full Movie PDVDRip 700MB Free Moviesjug
Download Pataakha 2018 Hindi Full Movie PDVDRip 700MB Free Moviesjug
Download Helicopter Eela 2018 Hindi Full Movie PDVDRip 700MB Free
Download FryDay (2018) Hindi 720p VER 2 AAC HQ DVD SCR x264 1.5 GB
Downlolad Soorma (2018) Hindi HDRip 720p AAC 1.2 GB ESub Free
Download L7 (2018) Hindi Dubbed 720p HDRip x264 900MB
Download Game of Thrones S02 Complete Dual Audio Hindi BluRay 720p
Download The Flash S01 Complete Dual Audio Hindi 720p BluRay
Download WWE Smackdown Live 09 October 2018 HDTV 480p 300MB
Download WWE Monday Night Raw 08 October 2018 HDTV 800mb
Haseena (2018) Hindi AAC 720p HDRip x264 900 MB
Download Karwaan (2018) Hindi 720p HDRip 850Mb
Ant Man And The Wasp (2018) Dual Audio [Hindi Cleaned Eng] HDRip 720p x264 ESubs 1Gb
Download Dashing Diljala 2018 Hindi Dubbed 720p HDRip 850Mb
Download Mulk (2018) Hindi 720p HDRip x264 AAC 1.2Gb
Download Dhadak (2018) Hindi 720p HDRip x264 950Mb
Jurassic World Fallen Kingdom (2018) Hindi ORG Dual Audio 720p BluRay 1GB
Download Sui Dhaaga Made in India (2018) Hindi PDVDRip x264 AAC 700MB
Power Unlimited 2 (Touch Chesi Chudu) 2018 Dual Audio 480p HDRip [Hindi Telugu]
18+ X X X Uncensored (2018) S01 All 5 Episodes Hindi 720p HDRip x264 800mb
Power Unlimited 2 (Touch Chesi Chudu) 2018 Dual Audio 720p HDRip [Hindi Telugu]
Download Akira (2016) 720p UNCUT HDRip x264 [Dual Audio] [Hindi Telugu]
Zhongkui Snow Girl and the Dark Crystal (2015) Dual Audio 720p HDRip [Hindi Chinese] 1Gb
Download Saheb Biwi Aur Gangster 3 2018 Hindi 350MB HDRip 480p
Download Saheb Biwi Aur Gangster 3 2018 Hindi 720p HDRip 1Gb
Download Batti Gul Meter Chalu 2018 Hindi PreDvd Rip 700MB
Download Laila Majnu 2018 Hindi DVDScr 700MB x264 Full Movie
Download Mitron 2018 Hindi DVDScr 700 MB Free Moviesjug
Download Manmarziyaan 2018 Hindi pDVDRip 700MB- Moviesjug
Download Genius (2018) Propper Audio Hindi 720p HDRip x264 1.4GB ESubs
Rampage (2018) Dual Audio ORG 720p BRRip Hindi English DD 5.1ch 1GB
Click Here For Bing.com Searchengine
Click Here For Google.co.in
Click Here For Youtube.com

Video And Audio Full Details (Properties)

General
Download Indian Idol Season 10 Episode 33 27 October 2018 HDTV 720p 800Mb
Format : Matroska
Format version : Version 4 / Version 2
File size : 779 MiB
Duration : 1 h 26 min
Overall bit rate : 1 263 kb/s
Movie name : Download Indian Idol Season 10 Episode 33 27 October 2018 HDTV 720p 800Mb

Video
ID : 1
Format : AVC
Format/Info : Advanced Video Codec
Format profile : [email protected]
Format settings : 3 Ref Frames
Format settings, CABAC : No
Format settings, RefFrames : 3 frames
Codec ID : V_MPEG4/ISO/AVC
Duration : 1 h 26 min
Bit rate mode : Constant
Bit rate : 1 200 kb/s
Width : 1 280 pixels
Height : 720 pixels
Display aspect ratio : 16:9
Frame rate mode : Constant
Frame rate : 25.000 FPS
Color space : YUV
Chroma subsampling : 4:2:0
Bit depth : 8 bits
Scan type : Progressive
Bits/(Pixel*Frame) : 0.052
Stream size : 740 MiB (95%)
Title : Download Indian Idol Season 10 Episode 33 27 October 2018 HDTV 720p 800Mb
Language : Hindi
Default : Yes
Forced : No
Color range : Limited
Color primaries : BT.709
Transfer characteristics : BT.709
Matrix coefficients : BT.709

Audio
ID : 2
Format : AAC
Format/Info : Advanced Audio Codec
Format profile : LC
Codec ID : A_AAC-2
Duration : 1 h 26 min
Bit rate : 61.4 kb/s
Channel(s) : 2 channels
Channel positions : Front: L R
Sampling rate : 48.0 kHz
Frame rate : 46.875 FPS (1024 SPF)
Compression mode : Lossy
Delay relative to video : -40 ms
Stream size : 37.9 MiB (5%)
Title : Download Indian Idol Season 10 Episode 33 27 October 2018 HDTV 720p 800Mb
Language : Hindi
Default : Yes
Forced : No

 

Download Indian Idol Season 10 Episode 33 27 October 2018 HDTV 720p 800Mb

Download Indian Idol Season 10 Episode 33 27 October 2018 HDTV 720p 800Mb

Download Indian Idol Season 10 Episode 33 27 October 2018 HDTV 720p 800Mb
Summary
Article Name
Download Indian Idol Season 10 Episode 33 27 October 2018 HDTV 720p 800Mb
Description
Download Indian Idol Season 10 Episode 33 27 October 2018 HDTV 720p 800Mb, salim sulaiman in Special indian idol episode download,new indian idol episode download, indian idol so10 ep 33 download in hd for free, indian idol season 10 episode 33 28st October 2018 download free in full hd,indian idol 2018 episode 33 download for android, indian idol 2018 season 10 edisode 33 download 720p 480p hd,
Author
Publisher Name
Moviesjug.net

Leave a Reply

Your email address will not be published. Required fields are marked *