Download Genius (2018) Propper Audio Hindi 720p HDRip x264 1.4GB ESubs

Download Genius (2018) Propper Audio Hindi 720p HDRip x264 1.4GB ESubs
Genius 2018 Hindi Posters,pics,images,screeshots

Download Genius (2018) Propper Audio Hindi 720p HDRip x264 1.4GB ESubs,Download Genius movie in full hd 720p, download genius movie 2018 full movie in full hd for mobile, download genius in 720p for pc, downliad genius 2018 movie in hd print, genius movie ne print download in hd for free, genius movie free download for free, download genius movie in 300 mb, genius movie download full hd in 300 mb, 2018 movie genius full download, nawazuddin siddiqui movie genius download , download genius movie in full hd latest print, download genius movie in 720p 1080p 480p hdrip brrip dvd rip, download genius movie origional print

Download Genius (2018) Propper Audio Hindi 720p HDRip x264 1.4GB ESubs
Genius 2018 Hindi Posters,pics,images,screeshots

Storyline==}}  An orphan, with a brilliant mind, joins RAW and is burdened by the killing of his entire team. Until he doesn’t avenge their death, he can’t live in peace with his love. So, he hatches a genius plan.

Download Genius (2018) Propper Audio Hindi 720p HDRip x264 1.4GB ESubs
Genius 2018 Hindi Posters,pics,images,screeshots
Download Genius (2018) Propper Audio Hindi 720p HDRip x264 1.4GB ESubs
Genius 2018 Hindi Posters,pics,images,screeshots

Download Genius (2018) Propper Audio Hindi 720p HDRip x264 1.4GB ESubs

Download Links

Download From Openload
Download From Clicknupload
Download from Desiupload

Download Genius (2018) Propper Audio Hindi 720p HDRip x264 1.4GB ESubs

Video And Audio Full Details (Properties)

General
Download Genius (2018) Propper Audio Hindi 720p HDRip x264 1.4GB ESubs
Format : Matroska
Format version : Version 4 / Version 2
File size : 1.50 GiB
Duration : 2 h 26 min
Overall bit rate : 1 460 kb/s

Video
ID : 1
Format : AVC
Format/Info : Advanced Video Codec
Format profile : [email protected]
Format settings : CABAC / 8 Ref Frames
Format settings, CABAC : Yes
Format settings, RefFrames : 8 frames
Codec ID : V_MPEG4/ISO/AVC
Duration : 2 h 26 min
Bit rate : 1 264 kb/s
Width : 1 280 pixels
Height : 606 pixels
Display aspect ratio : 2.112
Frame rate mode : Constant
Frame rate : 60.000 FPS
Color space : YUV
Chroma subsampling : 4:2:0
Bit depth : 8 bits
Scan type : Progressive
Bits/(Pixel*Frame) : 0.027
Stream size : 1.30 GiB (87%)
Title : Downloaded From www.Moviesjug.net
Language : Hindi
Default : Yes
Forced : No
Color range : Limited
Color primaries : BT.709
Transfer characteristics : BT.709
Matrix coefficients : BT.709

Audio
ID : 2
Format : MPEG Audio
Format version : Version 1
Format profile : Layer 3
Format settings : Joint stereo / MS Stereo
Codec ID : A_MPEG/L3
Codec ID/Hint : MP3
Duration : 2 h 26 min
Bit rate mode : Constant
Bit rate : 192 kb/s
Channel(s) : 2 channels
Sampling rate : 48.0 kHz
Frame rate : 41.667 FPS (1152 SPF)
Compression mode : Lossy
Stream size : 201 MiB (13%)
Title : Downloaded From www.Moviesjug.net
Language : Hindi
Default : Yes
Forced : No

Vist Our Other Popular Post To Related This


Download WWE Hell In A Cell 2018 PPV HDTV 720p – Moviesjug
Download Manmarziyaan 2018 Hindi pDVDRip 700MB- Moviesjug
Download Genius (2018) Hindi 480p HDRip x264 400 MB ESubs
Download Robot 2.0 2018 Hindi Dubbed Teaser In HD 1080p 720p 480p 360p

Tere Liye MP3 Song 320Kbps Atif Aslam And Akanksha Bhandari
Download Tere Liye Song HD Namaste England 2018 1080p 720p 480p BY Atif Aslam
WWE Smackdown Live 11 September 2018 HDTV 720p 900 MB
WWE Monday Night Raw 10 September 2018 HDTV 480p 700mb
Download Ant Man and the Wasp 2018 Dual Audio Hindi English 480p HDTC 300mb
Rampage (2018) Dual Audio ORG 720p BRRip Hindi English DD 5.1ch 1GB
Click Here For Bing.com Searchengine
Click Here For Google.co.in
Click Here For Youtube.com

Download Genius (2018) Propper Audio Hindi 720p HDRip x264 1.4GB ESubs

Download Genius (2018) Propper Audio Hindi 720p HDRip x264 1.4GB ESubs

 

Leave a Reply

Your email address will not be published. Required fields are marked *