Download Genius (2018) Propper Audio Hindi 480p HDRip x264 400 MB

Download Genius (2018) Propper Audio Hindi 480p HDRip x264 400 MB
Genius 2018 Hindi Posters,pics,images,screeshots

Download Genius (2018) Propper Audio Hindi 480p HDRip x264 400 MB,Download Genius movie in full hd 720p, download genius movie 2018 full movie in full hd for mobile, download genius in 720p for pc, downliad genius 2018 movie in hd print, genius movie ne print download in hd for free, genius movie free download for free, download genius movie in 300 mb, genius movie download full hd in 300 mb, 2018 movie genius full download, nawazuddin siddiqui movie genius download , download genius movie in full hd latest print, download genius movie in 720p 1080p 480p hdrip brrip dvd rip, download genius movie origional print

Download Genius (2018) Propper Audio Hindi 480p HDRip x264 400 MB
Genius 2018 Hindi Posters,pics,images,screeshots

IMDB Ratings6.1/10
Directed: Anil Sharma
Released Date:  24 August 2018 (India)
Genres: Action, Thriller
Languages: Hindi ,
Film Stars: Utkarsh Sharma, Ishita Chauhan, Mithun Chakraborty
Quality: 480p HDRip
Size: 400MB

Storyline==}}  An orphan, with a brilliant mind, joins RAW and is burdened by the killing of his entire team. Until he doesn’t avenge their death, he can’t live in peace with his love. So, he hatches a genius plan.
Download Genius (2018) Propper Audio Hindi 480p HDRip x264 400 MB

Genius 2018 Hindi Posters,pics,images,screeshots

Download Genius (2018) Propper Audio Hindi 480p HDRip x264 400 MB
Genius 2018 Hindi Posters,pics,images,screeshots

Download Genius (2018) Propper Audio Hindi 480p HDRip x264 400 MB

Download Links

Download From Openload
Download From Clicknupload
Download from Desiupload

Video And Audio Full Details (Properties)

Download Genius (2018) Propper Audio Hindi 480p HDRip x264 400 MB
Format : Matroska
Format version : Version 4 / Version 2
File size : 419 MiB
Duration : 2 h 26 min
Overall bit rate : 399 kb/s
Movie name : Downloaded From www.Moviesjug.net

Video
ID : 1
Format : AVC
Format/Info : Advanced Video Codec
Format profile : [email protected]
Format settings : CABAC / 16 Ref Frames
Format settings, CABAC : Yes
Format settings, RefFrames : 16 frames
Codec ID : V_MPEG4/ISO/AVC
Duration : 2 h 26 min
Bit rate : 340 kb/s
Width : 640 pixels
Height : 304 pixels
Display aspect ratio : 2.112
Frame rate mode : Constant
Frame rate : 60.000 FPS
Color space : YUV
Chroma subsampling : 4:2:0
Bit depth : 8 bits
Scan type : Progressive
Bits/(Pixel*Frame) : 0.029
Stream size : 357 MiB (85%)
Title : Downloaded From www.Moviesjug.net
aq=1:1.00
Language : Hindi
Default : Yes
Forced : No
Color range : Limited
Color primaries : BT.709
Transfer characteristics : BT.709
Matrix coefficients : BT.709

Audio
ID : 2
Format : AAC
Format/Info : Advanced Audio Codec
Format profile : HE-AAC / LC
Format settings : NBC
Codec ID : A_AAC-5
Duration : 2 h 26 min
Bit rate : 56.0 kb/s
Channel(s) : 2 channels
Channel positions : Front: L R
Sampling rate : 48.0 kHz / 24.0 kHz
Frame rate : 23.438 FPS (1024 SPF)
Compression mode : Lossy
Stream size : 58.8 MiB (14%)
Title : Downloaded From www.Moviesjug.net
Language : Hindi
Default : Yes
Forced : No

Visit Our Other Popular Post To Related This

Download Genius (2018) Hindi 720p HDRip x264 1.4GB ESubs
Download Genius (2018) Propper Audio Hindi 480p HDRip x264 400 MB
Download WWE Hell In A Cell 2018 PPV HDTV 720p – Moviesjug
Download Manmarziyaan 2018 Hindi pDVDRip 700MB- Moviesjug
Download Robot 2.0 2018 Hindi Dubbed Teaser In HD 1080p 720p 480p 360p
Tere Liye MP3 Song 320Kbps Atif Aslam And Akanksha Bhandari
Download Tere Liye Song HD Namaste England 2018 1080p 720p 480p BY Atif Aslam
WWE Smackdown Live 11 September 2018 HDTV 720p 900 MB
WWE Monday Night Raw 10 September 2018 HDTV 480p 700mb
Download Ant Man and the Wasp 2018 Dual Audio Hindi English 480p HDTC 300mb
Rampage (2018) Dual Audio ORG 720p BRRip Hindi English DD 5.1ch 1GB
Click Here For Bing.com Searchengine
Click Here For Google.co.in
Click Here For Youtube.com

 

Download Genius (2018) Propper Audio Hindi 480p HDRip x264 400 MB

Download Genius (2018) Propper Audio Hindi 480p HDRip x264 400 MB

 

Leave a Reply

Your email address will not be published. Required fields are marked *