Download FryDay (2018) Hindi 720p VER 2 AAC HQ DVD SCR x264 1.5 GB

Download FryDay (2018) Hindi 720p VER 2 AAC HQ DVD SCR x264 1.5 GB
Fryday (2018) hindi Movie Posters,Images,Pictures,Pics

Download FryDay (2018) Hindi 720p VER 2 AAC HQ DVD SCR x264 1.5 GB,Download Fryday full movie in hd for free,download Fryday movie in hd 720p,Fryday full movie download in hd print,download Fryday movie in 1080p 720p 480p,Fryday movie download full hd in 300 mb,Fryday movie download in 700MB,Fryday full movie download in hd for pc for free,Fryday full movie download 720p openload,download full movie in hindi Fryday 480p,Fryday movie download openload,Fryday full movie download,Fryday movie in 480p,Fryday free download full movie 700mb,Fryday movie download 720p mb,Fryday full movie download in 300mb,Fryday full movie download 480p free,Fryday full movie hd 480p download,Download Fryday 2018 Hindi PDVDRip 700MB Free Moviesjug,
download full hindi movie Fryday 720p 700mb,Fryday full movie download free,Fryday movie download 720p,new movie Fryday Friday full hindi hd print download

Download FryDay (2018) Hindi 720p VER 2 AAC HQ DVD SCR x264 1.5 GB
Fryday 2018 hindi movie Poster,Images,Picture,Pics,Screenshots

IMDB Ratings: 8.2/46
Directed: Abhishek Dogra
Released Date: 12 October 2018 (India)
Genres: Comedy
Languages: Hindi
Film Stars: Govinda, Sanjay Mishra, Varun Sharma
Movie Quality: PDVDRip
File Size: 700MB

 

Storyline==}} FryDay is a Hindi movie starring Govinda in a prominent role. The cast also includes Sanjay Mishra, Rajesh Sharma, Varun Sharma and Brijendra Kala. It is a comedy directed by Abhishek Dogra.(Download FryDay (2018) Hindi 720p VER 2 AAC HQ DVD SCR x264 1.5 GB)

Download FryDay (2018) Hindi 720p VER 2 AAC HQ DVD SCR x264 1.5 GB
Fryday 2018 hindi movie Poster,Images,Picture,Pics,Screenshots
Download FryDay (2018) Hindi 720p VER 2 AAC HQ DVD SCR x264 1.5 GB

Download Links

Download FryDay (2018) Hindi 720p VER 2 AAC HQ DVD SCR x264 1.5 GB
Download Fryday 2018 Hindi Full Movie PDVDRip 700MB Free Moviesjug

Download From Openload
Download From Clicknupload
Download From Desiupload
Download From Uploadfiles

Download Sample

Download From Openload
Download From Clicknupload
Download From Desiupload
Download From Uploadfiles

Thanks for Downloading……

Download FryDay (2018) Hindi 720p VER 2 AAC HQ DVD SCR x264 1.5 GB
Moviesjug.net

Visit Our Other Popular Post To Related This

Haseena (2018) Hindi AAC 720p HDRip x264 900 MB
Download Karwaan (2018) Hindi 720p HDRip 850Mb
Ant Man And The Wasp (2018) Dual Audio [Hindi Cleaned Eng] HDRip 720p x264 ESubs 1Gb
Download Dashing Diljala 2018 Hindi Dubbed 720p HDRip 850Mb
Download Mulk (2018) Hindi 720p HDRip x264 AAC 1.2Gb
Download Dhadak (2018) Hindi 720p HDRip x264 950Mb
Jurassic World Fallen Kingdom (2018) Hindi ORG Dual Audio 720p BluRay 1GB
Download Sui Dhaaga Made in India (2018) Hindi PDVDRip x264 AAC 700MB
Power Unlimited 2 (Touch Chesi Chudu) 2018 Dual Audio 480p HDRip [Hindi Telugu]
18+ X X X Uncensored (2018) S01 All 5 Episodes Hindi 720p HDRip x264 800mb
Power Unlimited 2 (Touch Chesi Chudu) 2018 Dual Audio 720p HDRip [Hindi Telugu]
Download Akira (2016) 720p UNCUT HDRip x264 [Dual Audio] [Hindi Telugu]
Zhongkui Snow Girl and the Dark Crystal (2015) Dual Audio 720p HDRip [Hindi Chinese] 1Gb
Download Saheb Biwi Aur Gangster 3 2018 Hindi 350MB HDRip 480p
Download Saheb Biwi Aur Gangster 3 2018 Hindi 720p HDRip 1Gb
Download Batti Gul Meter Chalu 2018 Hindi PreDvd Rip 700MB
Download Laila Majnu 2018 Hindi DVDScr 700MB x264 Full Movie
Download Mitron 2018 Hindi DVDScr 700 MB Free Moviesjug
Download Manmarziyaan 2018 Hindi pDVDRip 700MB- Moviesjug
Download Genius (2018) Propper Audio Hindi 720p HDRip x264 1.4GB ESubs
Rampage (2018) Dual Audio ORG 720p BRRip Hindi English DD 5.1ch 1GB
Click Here For Bing.com Searchengine
Click Here For Google.co.in
Click Here For Youtube.com

Video And Audio Full Details (Properties)

General
Fryday full movie download in 300mb,Fryday full movie download 480p free,Fryday full movie hd 480p download,Download Fryday 2018 Hindi PDVDRip 700MB Free Moviesjug,
download full hindi movie Fryday 720p 700mb,Fryday full movie download free,Fryday movie download 720p,new movie Fryday Friday full hindi hd print download

Download FryDay (2018) Hindi 720p VER 2 AAC HQ DVD SCR x264 1.5 GB
Format : Matroska
Format version : Version 4 / Version 2
File size : 1.37 GiB
Duration : 1 h 44 min
Overall bit rate : 1 880 kb/s
Movie name : Download FryDay (2018) Hindi 720p VER 2 AAC HQ DVD SCR x264 1.5 GB

Video
Fryday movie download full hd in 300 mb,Fryday movie download in 700MB,Fryday full movie download in hd for pc for free,Fryday full movie download 720p openload,download full movie in hindi Fryday 480p,Fryday movie download openload,Fryday full movie download,Fryday movie in 480p,Fryday free download full movie 700mb,Fryday movie download 720p mb

ID : 1
Format : AVC
Format/Info : Advanced Video Codec
Format profile : [email protected]
Format settings : CABAC / 4 Ref Frames
Format settings, CABAC : Yes
Format settings, RefFrames : 4 frames
Codec ID : V_MPEG4/ISO/AVC
Duration : 1 h 44 min
Bit rate : 1 747 kb/s
Width : 1 280 pixels
Height : 544 pixels
Display aspect ratio : 2.35:1
Frame rate mode : Constant
Frame rate : 25.000 FPS
Color space : YUV
Chroma subsampling : 4:2:0
Bit depth : 8 bits
Scan type : Progressive
Bits/(Pixel*Frame) : 0.100
Stream size : 1.27 GiB (93%)
Title : Download FryDay (2018) Hindi 720p VER 2 AAC HQ DVD SCR x264 1.5 GB
Language : Hindi
Default : Yes
Forced : No
Color range : Limited
Color primaries : BT.601 PAL
Transfer characteristics : BT.709
Matrix coefficients : BT.601

Audio
Download FryDay (2018) Hindi 720p VER 2 AAC HQ DVD SCR x264 1.5 GB,Download Fryday full movie in hd for free,download Fryday movie in hd 720p,Fryday full movie download in hd print,download Fryday movie in 1080p 720p 480p

ID : 2
Format : AAC
Format/Info : Advanced Audio Codec
Format profile : LC
Codec ID : A_AAC-2
Duration : 1 h 44 min
Bit rate : 128 kb/s
Channel(s) : 2 channels
Channel positions : Front: L R
Sampling rate : 48.0 kHz
Frame rate : 46.875 FPS (1024 SPF)
Compression mode : Lossy
Delay relative to video : -21 ms
Stream size : 95.6 MiB (7%)
Title : Download FryDay (2018) Hindi 720p VER 2 AAC HQ DVD SCR x264 1.5 GB
Language : Hindi
Default : Yes
Forced : No

Download FryDay (2018) Hindi 720p VER 2 AAC HQ DVD SCR x264 1.5 GB

Download FryDay (2018) Hindi 720p VER 2 AAC HQ DVD SCR x264 1.5 GB

Download FryDay (2018) Hindi 720p VER 2 AAC HQ DVD SCR x264 1.5 GB

Download FryDay (2018) Hindi 720p VER 2 AAC HQ DVD SCR x264 1.5 GB

Leave a Reply

Your email address will not be published. Required fields are marked *