Download Dhadak (2018) Hindi 720p HDRip x264 950Mb

Download Dhadak (2018) Hindi 720p HDRip x264 950Mb
Dhadak (2018) Hindi Movie Poster,Images,Picture,Pics,Screenshots

Download Dhadak (2018) Hindi 720p HDRip x264 950Mb,Download Dhadak (2018) Hindi full movie in hd for free,download Dhadak (2018) Hindi movie in hd 720p,Dhadak (2018) Hindi full movie download in hd print,download Dhadak (2018) Hindi,Download Dhadak (2018) Hindi 1Gb, Dhadak (2018) Hindi movie in 1080p 720p 480p,Dhadak (2018) Hindi movie download full hd in 300 mb,Dhadak (2018) Hindi movie download in 300MB,Dhadak (2018) Hindi full movie download in hd for pc for free,Dhadak (2018) Hindi Movie In hd, Download Dhadak (2018) Hindi Movie in Full hd,new movie dhadak full hindi hd print download

Download Dhadak (2018) Hindi 720p HDRip x264 950Mb
Dhadak (2018) Hindi Movie Poster,Images,Picture,Pics,Screenshots

IMDB Ratings: 4.1/10
Genres: Drama , Romance
Language: Hindi
Quality: 720p HDRip
Size: 975mb
Director: Shashank Khaitan
Writers: Shashank Khaitan, Nagraj Manjule
Stars: Ishaan Khattar, Janhvi Kapoor, Ashutosh Rana

Storyline==}} From the moment they set eyes on each other, Madhukar and Parthavi felt something familiar, something pure, but as their love blossomed, so did their problems. Torn between society and their families, their fate became uncertain. DHADAK is a simple, passionate story about first love.

Download Dhadak (2018) Hindi 720p HDRip x264 950Mb
Dhadak (2018) Hindi Movie Poster,Images,Picture,Pics,Screenshots
Download Dhadak (2018) Hindi 720p HDRip x264 950Mb
Dhadak (2018) Hindi Movie Poster,Images,Picture,Pics,Screenshots

Download Dhadak (2018) Hindi 720p HDRip x264 950Mb

Download Links

Download From Openload
Download From Clicknupload
Download from Desiupload

Visit Our Other Popular Post To Related This

Jurassic World Fallen Kingdom (2018) Hindi ORG Dual Audio 720p BluRay 1GB
Download Sui Dhaaga Made in India (2018) Hindi PDVDRip x264 AAC 700MB
Power Unlimited 2 (Touch Chesi Chudu) 2018 Dual Audio 480p HDRip [Hindi Telugu]
18+ X X X Uncensored (2018) S01 All 5 Episodes Hindi 720p HDRip x264 800mb
Power Unlimited 2 (Touch Chesi Chudu) 2018 Dual Audio 720p HDRip [Hindi Telugu]
Download Akira (2016) 720p UNCUT HDRip x264 [Dual Audio] [Hindi Telugu]
Zhongkui Snow Girl and the Dark Crystal (2015) Dual Audio 720p HDRip [Hindi Chinese] 1Gb
Download Saheb Biwi Aur Gangster 3 2018 Hindi 350MB HDRip 480p
Download Saheb Biwi Aur Gangster 3 2018 Hindi 720p HDRip 1Gb
Download Batti Gul Meter Chalu 2018 Hindi PreDvd Rip 700MB
Download Laila Majnu 2018 Hindi DVDScr 700MB x264 Full Movie
Download Mitron 2018 Hindi DVDScr 700 MB Free Moviesjug
Download Manmarziyaan 2018 Hindi pDVDRip 700MB- Moviesjug
Download Genius (2018) Propper Audio Hindi 720p HDRip x264 1.4GB ESubs
Rampage (2018) Dual Audio ORG 720p BRRip Hindi English DD 5.1ch 1GB
Click Here For Bing.com Searchengine
Click Here For Google.co.in
Click Here For Youtube.com

Video And Audio Full Details (Properties)

General
new movie dhadak full hindi hd print download,Dhadak (2018) Hindi movie download full hd in 300 mb,Dhadak (2018) Hindi movie download in 300MB,Dhadak (2018) Hindi full movie download in hd for pc for free,Dhadak (2018) Hindi Movie In hd, Download Dhadak (2018) Hindi Movie in Full hd
Download Dhadak (2018) Hindi 720p HDRip x264 950Mb.mkv
Format : Matroska
Format version : Version 4 / Version 2
File size : 975 MiB
Duration : 2 h 5 min
Overall bit rate : 1 082 kb/s
Movie name : Download Dhadak (2018) Hindi 720p HDRip x264 950Mb

Video
Download Dhadak (2018) Hindi full movie in hd for free,download Dhadak (2018) Hindi movie in hd 720p,Dhadak (2018) Hindi full movie download in hd print,download Dhadak (2018) Hindi,Download Dhadak (2018) Hindi 1Gb
ID : 1
Format : AVC
Format/Info : Advanced Video Codec
Format profile : [email protected]
Format settings : CABAC / 6 Ref Frames
Format settings, CABAC : Yes
Format settings, RefFrames : 6 frames
Codec ID : V_MPEG4/ISO/AVC
Duration : 2 h 5 min
Bit rate : 1 000 kb/s
Width : 1 280 pixels
Height : 720 pixels
Display aspect ratio : 16:9
Frame rate mode : Constant
Frame rate : 23.976 (24000/1001) FPS
Color space : YUV
Chroma subsampling : 4:2:0
Bit depth : 8 bits
Scan type : Progressive
Bits/(Pixel*Frame) : 0.045
Stream size : 901 MiB (92%)
Title : Download Dhadak (2018) Hindi 720p HDRip x264 950Mb
Language : Hindi
Default : Yes
Forced : No
Color range : Limited
Color primaries : BT.709
Transfer characteristics : BT.709
Matrix coefficients : BT.709

Audio
ID : 2
Format : AAC
Format/Info : Advanced Audio Codec
Format profile : LC
Codec ID : A_AAC-2
Duration : 2 h 5 min
Bit rate : 80.0 kb/s
Channel(s) : 2 channels
Channel positions : Front: L R
Sampling rate : 44.1 kHz
Frame rate : 43.066 FPS (1024 SPF)
Compression mode : Lossy
Delay relative to video : -83 ms
Stream size : 72.1 MiB (7%)
Title : Download Dhadak (2018) Hindi 720p HDRip x264 950Mb
Language : Hindi
Default : Yes
Forced : No

Download Dhadak (2018) Hindi 720p HDRip x264 950Mb

Download Dhadak (2018) Hindi 720p HDRip x264 950Mb

Download Dhadak (2018) Hindi 720p HDRip x264 950Mb

Leave a Reply

Your email address will not be published. Required fields are marked *