Download Dashing Diljala 2018 Hindi Dubbed 720p HDRip 850Mb

Download Dashing Diljala 2018 Hindi Dubbed 720p HDRip 850Mb
Dashing Diljala (2018) Movie Poster,Images,Picture,Pics,Screenshots

Download Dashing Diljala 2018 Hindi Dubbed 720p HDRip 850Mb,Download Dashing Diljala 2018 Hindi Dubbed 720p full movie in hd for free,download Dashing Diljala 2018 Hindi Dubbed 720p movie in hd 720p,Dashing Diljala 2018 Hindi Dubbed 720p full movie download in hd print,download Dashing Diljala 2018 Hindi Dubbed 720p,Download Dashing Diljala 2018 Hindi Dubbed 720p Full Movie, Dashing Diljala 2018 Hindi Dubbed 720p movie in 1080p 720p 480p,Dashing Diljala 2018 Hindi Dubbed 720p movie download full hd in 300 mb,Dashing Diljala 2018 Hindi Dubbed 720p movie download in 300MB,Dashing Diljala 2018 Hindi Dubbed 720p full movie download in hd for pc for free,Dashing Diljala 2018 Hindi Dubbed 720p Movie In hd, Download Dashing Diljala 2018 Hindi Dubbed 720p Movie iN Full hd,South Latest movie Download,South Latest Movie Hindi Dubbed Download,South Movie download hd in hindi dubbed,south 2018 movie download hd in hindi dubbed,Dashing Diljala 2018 Dual Audio 720p HDRip [Hindi Telugu],

Download Dashing Diljala 2018 Hindi Dubbed 720p HDRip 850Mb
Dashing Diljala (2018) Movie Poster,Images,Picture,Pics,Screenshots

IMDB Ratings: 6.7/10
Genres: Comedy , Drama , Romance
Language: Hindi
Quality: 720p HDRip
Size: 879mb
Director: Chandoo Mondeti
Writers: Chandoo Mondeti, Alphonse Puthren
Stars: Naga Chaitanya Akkineni, Shruti Haasan, Madonna Sebastia

Storyline==}} The story revolves around Vicky’s three love stories. The first story is in the age of schooling. When Vicky is in 10 Grade he falls in love with Suma(Anupama Parameshwaran). But he was afraid to reciprocate his love because her father (30 years Prithvi) beats anyone who proposes to his daughter. But the time he reciprocated his love she tells that she is already in love with another guy. The second story is in college. Vicky and his gang became in college.

Download Dashing Diljala 2018 Hindi Dubbed 720p HDRip 850Mb
Dashing Diljala (2018) Movie Poster,Images,Picture,Pics,Screenshots
Download Dashing Diljala 2018 Hindi Dubbed 720p HDRip 850Mb
Dashing Diljala (2018) Movie Poster,Images,Picture,Pics,Screenshots

Download Dashing Diljala 2018 Hindi Dubbed 720p HDRip 850Mb

Download Links

Download From Openload
Download From Clicknupload
Download from Desiupload
Download From Uploadfiles

Visit Our Other Popular Post To Related This

Ant Man And The Wasp (2018) Dual Audio [Hindi Cleaned Eng] HDRip 720p x264 ESubs 1Gb
Download Mulk (2018) Hindi 720p HDRip x264 AAC 1.2Gb
Download Dhadak (2018) Hindi 720p HDRip x264 950Mb
Jurassic World Fallen Kingdom (2018) Hindi ORG Dual Audio 720p BluRay 1GB
Download Sui Dhaaga Made in India (2018) Hindi PDVDRip x264 AAC 700MB
Power Unlimited 2 (Touch Chesi Chudu) 2018 Dual Audio 480p HDRip [Hindi Telugu]
18+ X X X Uncensored (2018) S01 All 5 Episodes Hindi 720p HDRip x264 800mb
Power Unlimited 2 (Touch Chesi Chudu) 2018 Dual Audio 720p HDRip [Hindi Telugu]
Download Akira (2016) 720p UNCUT HDRip x264 [Dual Audio] [Hindi Telugu]
Zhongkui Snow Girl and the Dark Crystal (2015) Dual Audio 720p HDRip [Hindi Chinese] 1Gb
Download Saheb Biwi Aur Gangster 3 2018 Hindi 350MB HDRip 480p
Download Saheb Biwi Aur Gangster 3 2018 Hindi 720p HDRip 1Gb
Download Batti Gul Meter Chalu 2018 Hindi PreDvd Rip 700MB
Download Laila Majnu 2018 Hindi DVDScr 700MB x264 Full Movie
Download Mitron 2018 Hindi DVDScr 700 MB Free Moviesjug
Download Manmarziyaan 2018 Hindi pDVDRip 700MB- Moviesjug
Download Genius (2018) Propper Audio Hindi 720p HDRip x264 1.4GB ESubs
Rampage (2018) Dual Audio ORG 720p BRRip Hindi English DD 5.1ch 1GB
Click Here For Bing.com Searchengine
Click Here For Google.co.in
Click Here For Youtube.com

Video And Audio Full Details (Properties)

General
Download Dashing Diljala 2018 Hindi Dubbed 720p HDRip 850Mb.mkv
Format : Matroska
Format version : Version 4 / Version 2
File size : 879 MiB
Duration : 2 h 0 min
Overall bit rate : 1 020 kb/s
Movie name : Download Dashing Diljala 2018 Hindi Dubbed 720p HDRip 850Mb

Video
ID : 1
Format : AVC
Format/Info : Advanced Video Codec
Format profile : [email protected]
Format settings : CABAC / 4 Ref Frames
Format settings, CABAC : Yes
Format settings, RefFrames : 4 frames
Codec ID : V_MPEG4/ISO/AVC
Duration : 2 h 0 min
Bit rate : 900 kb/s
Width : 1 280 pixels
Height : 544 pixels
Display aspect ratio : 2.35:1
Frame rate mode : Constant
Frame rate : 23.976 (24000/1001) FPS
Color space : YUV
Chroma subsampling : 4:2:0
Bit depth : 8 bits
Scan type : Progressive
Bits/(Pixel*Frame) : 0.054
Stream size : 767 MiB (87%)
Title : Download Dashing Diljala 2018 Hindi Dubbed 720p HDRip 850Mb
Language : Hindi
Default : Yes
Forced : No
Color range : Limited

Audio
ID : 2
Format : AAC
Format/Info : Advanced Audio Codec
Format profile : LC
Codec ID : A_AAC-2
Duration : 2 h 0 min
Bit rate : 128 kb/s
Channel(s) : 2 channels
Channel positions : Front: L R
Sampling rate : 22.05 kHz
Frame rate : 21.533 FPS (1024 SPF)
Compression mode : Lossy
Delay relative to video : -46 ms
Stream size : 111 MiB (13%)
Title : Download Dashing Diljala 2018 Hindi Dubbed 720p HDRip 850Mb
Language : Hindi
Default : Yes
Forced : No

Download Dashing Diljala 2018 Hindi Dubbed 720p HDRip 850Mb

Download Dashing Diljala 2018 Hindi Dubbed 720p HDRip 850Mb

Download Dashing Diljala 2018 Hindi Dubbed 720p HDRip 850Mb

Leave a Reply

Your email address will not be published. Required fields are marked *