Download Comedy Circus 2018 Grand Finale Episode 24 25 November 2018 720p HDTV 700Mb

Download Comedy Circus 2018 Grand Finale Episode 24 25 November 2018 720p HDTV 700Mb
Download Comedy Circus 2018 Grand Finale Episode 24 25 November 2018 720p HDTV 700Mb

Download Comedy Circus 2018 Grand Finale Episode 24 25 November 2018 720p HDTV 700Mb,,Comedy Circus 2018-Episode 24  download in hd for free 720p, Comedy Circus 2018- Episode 24 25 November 2018 download free in full HD,Comedy Circus 2018 download for android,Comedy Circus 2018 Episode 24 download 720p 480p HD,Comedy Circus 2018 Episode 24 25 Nov full show download 720p, Comedy Circus 2018-Episode 24 25 November download 720p,Comedy Circus 2018-Episode 24 25 November 2018 720p 500mb,Comedy Circus 2018 download for android all Episodes 720p,Download Comedy Circus 2018 Episode Episode 24 25 November 2018 720p HDTV 500Mb Download in hd,Comedy Circus 2018 Episode 24 25 November  2018 full show download 500mb,Comedy Circus Episode 24 25 November 2018 full show download 720p 300mb,Comedy circus 2018 All episodes Download in HD for free 720p, Download Comedy Circus 2018 500mb,Comedy Circus 2018,Comedy Circus Episode 24 25 November 720p 500mb,comedy circus 2018 episode download,comedy circus 2018 full episode download,comedy circus show downlod 480p downlod,comedy circus 2018 full episode download,

Download Comedy Circus 2018 Grand Finale Episode 24 25 November 2018 720p HDTV 700Mb
Download Comedy Circus 2018 Grand Finale Episode 24 25 November 2018 720p HDTV 700Mb
Download Comedy Circus 2018 Grand Finale Episode 24 25 November 2018 720p HDTV 700Mb

Show Name : Comedy Circus 2018
Genres: Comedy Show
Language: Hindi
Quality: 720p HDTV
Size: 700 mb
Date: 25th Nov 2018
Judges: Archana Puran Singh and Sohail Khan
Host : Joana Robajeska

Storyline==}} One of the comedy show of Indian television. This season of Comedy Circus was named Comedy Circus; Archana Puran Singh and Sohail Khan was the judge for this season & Host Is Joana Robajeska.
India’s most famous comedy show, Comedy Circus, returns to the small screen.This time the stakes are high,the talent is new, but what is unchanged is Archana Puran Singh.(Download Comedy Circus 2018 Grand Finale Episode 24 25 November 2018 720p HDTV 700Mb)

Download Comedy Circus 2018 Grand Finale Episode 24 25 November 2018 720p HDTV 700Mb
Download Comedy Circus 2018 Grand Finale Episode 24 25 November 2018 720p HDTV 700Mb
Download Comedy Circus 2018 Grand Finale Episode 24 25 November 2018 720p HDTV 700Mb
Download Comedy Circus 2018 Grand Finale Episode 24 25 November 2018 720p HDTV 700Mb

Download Comedy Circus 2018 Grand Finale Episode 24 25 November 2018 720p HDTV 700Mb

-=Download Links=-

Download Comedy Circus 2018 Grand Finale Episode 24 25 November 2018 720p HDTV 700Mb
Download Comedy Circus 2018 Grand Finale Episode 24 25 November 2018 720p HDTV 700Mb

Download From Filerio
Download From Openload
Download From Tusfile

Thanks for Downloading…………

Download Comedy Circus 2018 Grand Finale Episode 24 25 November 2018 720p HDTV 700Mb
Download Comedy Circus 2018 Grand Finale Episode 24 25 November 2018 720p HDTV 700Mb

Visit Our Other Popular Post To Related This

Goosebumps 2 (2018) Dual Audio 720p HDTS x264 [Hindi+English] 950 MB
Download Indian Idol Season 10 Episode 33 27 October 2018 HDTV 720p 800Mb
Hotel Transylvania 3 Summer Vacation 2018 Dual Audio ORG [Hindi English] 720p BluRay 850 MB
Skyscraper 2018 Dual Audio ORG Hindi 720p BluRay [Hindi English] 900 MB ESubs
Mohalla Assi 2018 Hindi HD Full Movie Free Download PDVDRip 700 MB
Baazaar 2018 HD Full Movie Free Download PDVDRip 700 MB
The Journey Of Karma 2018 HD Full Movie Free Download PDVDRip 700 MB (Poonam Pandey)
Haseena (2018) Hindi AAC 720p HDRip x264 900 MB
Download Karwaan (2018) Hindi 720p HDRip 850Mb
Ant Man And The Wasp (2018) Dual Audio [Hindi Cleaned Eng] HDRip 720p x264 ESubs 1Gb
Download Dashing Diljala 2018 Hindi Dubbed 720p HDRip 850Mb
Download Mulk (2018) Hindi 720p HDRip x264 AAC 1.2Gb
Download Dhadak (2018) Hindi 720p HDRip x264 950Mb
Jurassic World Fallen Kingdom (2018) Hindi ORG Dual Audio 720p BluRay 1GB
Download Sui Dhaaga Made in India (2018) Hindi PDVDRip x264 AAC 700MB
Power Unlimited 2 (Touch Chesi Chudu) 2018 Dual Audio 480p HDRip [Hindi Telugu]
18+ X X X Uncensored (2018) S01 All 5 Episodes Hindi 720p HDRip x264 800mb
Power Unlimited 2 (Touch Chesi Chudu) 2018 Dual Audio 720p HDRip [Hindi Telugu]
Download Akira (2016) 720p UNCUT HDRip x264 [Dual Audio] [Hindi Telugu]
Zhongkui Snow Girl and the Dark Crystal (2015) Dual Audio 720p HDRip [Hindi Chinese] 1Gb
Download Saheb Biwi Aur Gangster 3 2018 Hindi 350MB HDRip 480p
Download Saheb Biwi Aur Gangster 3 2018 Hindi 720p HDRip 1Gb
Download Batti Gul Meter Chalu 2018 Hindi PreDvd Rip 700MB
Download Laila Majnu 2018 Hindi DVDScr 700MB x264 Full Movie
Download Mitron 2018 Hindi DVDScr 700 MB Free Moviesjug
Download Manmarziyaan 2018 Hindi pDVDRip 700MB- Moviesjug
Download Genius (2018) Propper Audio Hindi 720p HDRip x264 1.4GB ESubs
Rampage (2018) Dual Audio ORG 720p BRRip Hindi English DD 5.1ch 1GB
Click Here For Bing.com Searchengine
Click Here For Google.co.in
Click Here For Youtube.com

Video And Audio Full Details (Properties)

General
Download Comedy Circus 2018 Grand Finale Episode 24 25 November 2018 720p HDTV 700Mb
Format version : Version 4 / Version 2
File size : 737 MiB
Duration : 1 h 22 min
Overall bit rate mode : Variable
Overall bit rate : 1 253 kb/s
Movie name : Downloaded From [Moviesjug.net]
ID : 1
Format : AVC
Format/Info : Advanced Video Codec
Format profile : [email protected]
Format settings : 3 Ref Frames
Format settings, CABAC : No
Format settings, RefFrames : 3 frames
Codec ID : V_MPEG4/ISO/AVC
Duration : 1 h 22 min
Bit rate mode : Variable
Bit rate : 1 200 kb/s
Width : 1 280 pixels
Height : 720 pixels
Display aspect ratio : 16:9
Frame rate mode : Constant
Frame rate : 25.000 FPS
Color space : YUV
Chroma subsampling : 4:2:0
Bit depth : 8 bits
Scan type : Progressive
Bits/(Pixel*Frame) : 0.052
Stream size : 700 MiB (95%)
Title : Downloaded From [Moviesjug.net]
Language : Hindi
Default : Yes
Forced : No
Color range : Limited
Color primaries : BT.709
Transfer characteristics : BT.709
Matrix coefficients : BT.709

Audio
ID : 2
Format : AAC
Format/Info : Advanced Audio Codec
Format profile : LC
Codec ID : A_AAC-2
Duration : 1 h 22 min
Bit rate : 61.4 kb/s
Channel(s) : 2 channels
Channel positions : Front: L R
Sampling rate : 48.0 kHz
Frame rate : 46.875 FPS (1024 SPF)
Compression mode : Lossy
Delay relative to video : -33 ms
Stream size : 36.1 MiB (5%)
Title : Downloaded From [Moviesjug.net]
Language : Hindi
Default : Yes
Forced : No

Download Comedy Circus 2018 Grand Finale Episode 24 25 November 2018 720p HDTV 700Mb

Download Comedy Circus 2018 Grand Finale Episode 24 25 November 2018 720p HDTV 700Mb

Download Comedy Circus 2018 Grand Finale Episode 24 25 November 2018 720p HDTV 700Mb
Summary
Article Name
Download Comedy Circus 2018 Grand Finale Episode 24 25 November 2018 720p HDTV 700Mb
Description
Download Comedy Circus 2018 Grand Finale Episode 24 25 November 2018 720p HDTV 700Mb,,Comedy Circus 2018-Episode 24 download in hd for free 720p, Comedy Circus 2018- Episode 24 25 November 2018 download free in full HD,Comedy Circus 2018 download for android,Comedy Circus 2018 Episode 24 download 720p 480p HD,Comedy Circus 2018 Episode 24 25 Nov full show download 720p, Comedy Circus 2018-Episode 24 25 November download 720p,
Author
Publisher Name
Moviesjug.net

Leave a Reply

Your email address will not be published. Required fields are marked *