Download Batti Gul Meter Chalu 2018 Hindi PreDvd Rip 700MB

Download Batti Gul Meter Chalu 2018 Hindi PreDvd Rip 700MB
Batti Gul Meter Chalu 2018 Hindi Posters,pics,images,screeshots

Download Batti Gul Meter Chalu 2018 Hindi PreDvd Rip 700MB,Download Batti Gul Meter Chalu 2018 Hindi full movie in hd for free,download Batti Gul Meter Chalu 2018 Hindi movie in hd 720p,Batti Gul Meter Chalu 2018 Hindi full movie download in hd print,download Batti Gul Meter Chalu 2018 Hindi,Download Batti Gul 2018 Hindi, Batti Gul Meter Chalu 2018 Hindi movie in 1080p 720p 480p,Batti Gul Meter Chalu 2018 Hindi movie download full hd in 300 mb,Batti Gul Meter Chalu 2018 Hindi movie download in 700MB,Batti Gul Meter Chalu 2018 Hindi full movie download in hd for pc for free,batti gul Meter Chalu Movie In hd, Download Batti gul Meter Chalu Movie iN Full hd

Download Batti Gul Meter Chalu 2018 Hindi PreDvd Rip 700MB
Batti Gul Meter Chalu 2018 Hindi Posters,pics,images,screeshots

IMDB Ratings: 7.6/10
Directed: Shree Narayan Singh
Released Date:  21st September 2018 (India)
Genres: Comedy, Drama
Languages: Hindi
Film Stars: Shahid Kapoor, Yami Gautam, Shraddha Kapoor
Movie Quality: PreDvd Rip
File Size: 700MB

Storyline==}} A social movie about escalating electric bills.Nauti (Shraddha Kapoor), SK (Shahid Kapoor) and Tripathi (Divyendu Sharma) are friends who live in the small town of Tehri in Uttarakhand. The trio is inseparable and their dosti is rock solid. But life takes a turn for the worse, when Tripathi’s new business set-up is slammed with an exorbitant electricity bill of 54 lakhs.

Download Batti Gul Meter Chalu 2018 Hindi PreDvd Rip 700MB
Batti Gul Meter Chalu 2018 Hindi Posters,pics,images,screeshots
Download Batti Gul Meter Chalu 2018 Hindi PreDvd Rip 700MB
Batti Gull Meter Chalu 2018 Hindi Posters,pics,images,screeshots

Download Batti Gul Meter Chalu 2018 Hindi PreDvd Rip 700MB

DOWNLOAD MOVIE SAMPLE

Download From Openload
Download From Clicknupload
Download from Desiupload

Download Links

Download From Openload
Download From Clicknupload
Download from Desiupload

Video And Audio Full Details (Properties)

General
Complete name :Download Batti Gul Meter Chalu 2018 Hindi PreDvd Rip 700MB.mkv
Format : Matroska
Format version : Version 4 / Version 2
File size : 698 MiB
Duration : 2 h 19 min
Overall bit rate : 700 kb/s
Movie name : Download Batti Gul Meter Chalu 2018 Hindi PreDvd Rip 700MB

Video
ID : 1
Format : AVC
Format/Info : Advanced Video Codec
Format profile : [email protected]
Format settings : CABAC / 4 Ref Frames
Format settings, CABAC : Yes
Format settings, RefFrames : 4 frames
Codec ID : V_MPEG4/ISO/AVC
Duration : 2 h 19 min
Bit rate : 540 kb/s
Width : 688 pixels
Height : 300 pixels
Display aspect ratio : 2.25:1
Frame rate mode : Constant
Frame rate : 25.000 FPS
Color space : YUV
Chroma subsampling : 4:2:0
Bit depth : 8 bits
Scan type : Progressive
Bits/(Pixel*Frame) : 0.105
Stream size : 536 MiB (77%)
Title : Download Batti Gul Meter Chalu 2018 Hindi PreDvd Rip 700MB
Language : Hindi
Default : Yes
Forced : No

Audio
ID : 2
Format : AAC
Format/Info : Advanced Audio Codec
Format profile : LC
Codec ID : A_AAC-2
Duration : 2 h 19 min
Bit rate : 160 kb/s
Channel(s) : 2 channels
Channel positions : Front: L R
Sampling rate : 48.0 kHz
Frame rate : 46.875 FPS (1024 SPF)
Compression mode : Lossy
Delay relative to video : -21 ms
Stream size : 160 MiB (23%)
Title :Download Batti Gul Meter Chalu 2018 Hindi PreDvd Rip 700MB
Language : Hindi
Default : Yes
Forced : No

Visit Our Other Popular Post To Related This

Download Laila Majnu 2018 Hindi DVDScr 700MB x264 Full Movie
Download Mitron 2018 Hindi DVDScr 700 MB Free Moviesjug
Download WWE Hell In A Cell 2018 PPV HDTV 720p – Moviesjug
Download Manmarziyaan 2018 Hindi pDVDRip 700MB- Moviesjug
Download Genius (2018) Propper Audio Hindi 720p HDRip x264 1.4GB ESubs
Rampage (2018) Dual Audio ORG 720p BRRip Hindi English DD 5.1ch 1GB
Download Ant Man and the Wasp 2018 Dual Audio Hindi English 480p HDTC 300mb
Click Here For Bing.com Searchengine
Click Here For Google.co.in
Click Here For Youtube.com

Download Batti Gul Meter Chalu 2018 Hindi PreDvd Rip 700MB

Download Batti Gul Meter Chalu 2018 Hindi PreDvd Rip 700MB

Leave a Reply

Your email address will not be published. Required fields are marked *