Download Akira (2016) 720p UNCUT HDRip x264 [Dual Audio] [Hindi Telugu]

Download Akira (2016) 720p UNCUT HDRip x264 [Dual Audio] [Hindi Telugu]
Akira (2016) Bhoot Bangla Movie posters, Images,screnshotss,pics,
Download Akira (2016) 720p UNCUT HDRip x264 [Dual Audio] [Hindi Telugu],Download Akira (2016) Bhoot Bangla 2018 Hindi Dubbed full movie in hd for free,download Akira (2016) Bhoot Bangla 2018 Hindi Dubbed movie in hd 720p,Akira (2016) Bhoot Bangla 2018 Hindi Dubbed full movie download in hd print,download Akira (2016) Bhoot Bangla  ek Haunted House 2018 Hindi Dubbed,Download Akira (2016) Bhoot Bangla 2018 Hindi Dubbed Full Movie,Akira (2016) Bhoot Bangla 2018 Hindi Dubbed movie in 1080p 720p 480p,Akira (2016) Bhoot Bangla 2018 Hindi Dubbed movie download full hd in 300 mb,Akira (2016) Bhoot Bangla 2018 Hindi Dubbed movie download in 300MB,Akira (2016) Bhoot Bangla 2018 Hindi Dubbed full movie download in hd for pc for free,Akira (2016) Bhoot Bangla 2018 Hindi Dubbed Movie In hd, Download Akira (2016) Bhoot Bangla 2018 Hindi Dubbed Movie iN Full hd,Download Akira (2016) Bhoot Bangla 2018 Hindi Dubbed 720p HDRip 1.1GB, Bhoot Bangla 2018 Hindi Dubbed Full Movie Hd,Bhoot Bangla Download In hd,Bhoot Bangla Download In 720p,Bhoot Bangla Download In 720p Full HD,

Download Akira (2016) 720p UNCUT HDRip x264 [Dual Audio] [Hindi Telugu]
Akira (2016) Bhoot Bangla Movie posters, Images,screnshotss,pics,

IMDB Ratings: 5.3/10
Directed: Pradeep Mamutty
Released Date: 14 September 2018 In Hindi
Genres: Horror
Languages: Hindi + Telugu
Film Stars: Virat, Anusha, Ankitha, Rocking Rakesh,
Movie Quality: 720p UNCUT HDRip
File Size: 1Gb

Storyline==}} Akira Movie Starring Virat, Anusha, Ankitha, Rocking Rakesh, Kirak RP, #JabardasthApparao among Others, Directed by Pradeep Mamutty and Produced by Deepa Vardhan, Music Composed by Jayanth. 

Download Akira (2016) 720p UNCUT HDRip x264 [Dual Audio] [Hindi Telugu]
Akira (2016) Bhoot Bangla Movie posters, Images,screnshotss,pics,
Download Akira (2016) 720p UNCUT HDRip x264 [Dual Audio] [Hindi Telugu]
Akira (2016) Bhoot Bangla Movie posters, Images,screnshotss,pics,

Download Akira (2016) 720p UNCUT HDRip x264 [Dual Audio] [Hindi Telugu]

Download Links

Download From Openload
Download From Clicknupload
Download from Desiupload

Video And Audio Full Details (Properties)

General
Download Akira (2016) 720p UNCUT HDRip x264 [Dual Audio] [Hindi Telugu].mkv
Format : Matroska
Format version : Version 4 / Version 2
File size : 1 011 MiB
Duration : 1 h 49 min
Overall bit rate : 1 290 kb/s
Movie name : Download Akira (2016) 720p UNCUT HDRip x264 [Dual Audio] [Hindi Telugu]

Video
ID : 1
Format : AVC
Format/Info : Advanced Video Codec
Format profile : [email protected]
Format settings : CABAC / 3 Ref Frames
Format settings, CABAC : Yes
Format settings, RefFrames : 3 frames
Codec ID : V_MPEG4/ISO/AVC
Duration : 1 h 49 min
Bit rate : 1 000 kb/s
Width : 1 280 pixels
Height : 544 pixels
Display aspect ratio : 2.35:1
Frame rate mode : Constant
Frame rate : 24.000 FPS
Color space : YUV
Chroma subsampling : 4:2:0
Bit depth : 8 bits
Scan type : Progressive
Bits/(Pixel*Frame) : 0.060
Stream size : 784 MiB (77%)
Title : Download Akira (2016) 720p UNCUT HDRip x264 [Dual Audio] [Hindi Telugu]
Language : Telugu
Default : Yes
Forced : No

Audio #1
ID : 2
Format : AC-3
Format/Info : Audio Coding 3
Codec ID : A_AC3
Duration : 1 h 49 min
Bit rate mode : Constant
Bit rate : 192 kb/s
Channel(s) : 2 channels
Channel positions : Front: L R
Sampling rate : 48.0 kHz
Frame rate : 31.250 FPS (1536 SPF)
Bit depth : 16 bits
Compression mode : Lossy
Stream size : 150 MiB (15%)
Title : Download Akira (2016) 720p UNCUT HDRip x264 [Dual Audio] [Hindi Telugu]
Language : Hindi
Service kind : Complete Main
Default : Yes
Forced : No

Audio #2
ID : 3
Format : AAC
Format/Info : Advanced Audio Codec
Format profile : LC
Codec ID : A_AAC-2
Duration : 1 h 49 min
Bit rate : 96.0 kb/s
Channel(s) : 2 channels
Channel positions : Front: L R
Sampling rate : 48.0 kHz
Frame rate : 46.875 FPS (1024 SPF)
Compression mode : Lossy
Stream size : 75.2 MiB (7%)
Title : Download Akira (2016) 720p UNCUT HDRip x264 [Dual Audio] [Hindi Telugu]
Language : Telugu
Default : No
Forced : No

Visit Our Other Popular Post To Related This

Zhongkui Snow Girl and the Dark Crystal (2015) Dual Audio 720p HDRip [Hindi Chinese] 1Gb
Download Nawabzaade (2018) Hindi 720p HDRip x264 950Mb
Download Surya Ka Yaarana 2018 Hindi Dubbed 720p HDRip 1.1GB
Download Saheb Biwi Aur Gangster 3 2018 Hindi 350MB HDRip 480p
Download Saheb Biwi Aur Gangster 3 2018 Hindi 720p HDRip 1Gb
Download Batti Gul Meter Chalu 2018 Hindi PreDvd Rip 700MB
Download Laila Majnu 2018 Hindi DVDScr 700MB x264 Full Movie
Download Mitron 2018 Hindi DVDScr 700 MB Free Moviesjug
Download Manmarziyaan 2018 Hindi pDVDRip 700MB- Moviesjug
Download Genius (2018) Propper Audio Hindi 720p HDRip x264 1.4GB ESubs
Rampage (2018) Dual Audio ORG 720p BRRip Hindi English DD 5.1ch 1GB
Download Ant Man and the Wasp 2018 Dual Audio Hindi English 480p HDTC 300mb
Click Here For Bing.com Searchengine
Click Here For Google.co.in
Click Here For Youtube.com

Download Akira (2016) 720p UNCUT HDRip x264 [Dual Audio] [Hindi Telugu]

Download Akira (2016) 720p UNCUT HDRip x264 [Dual Audio] [Hindi Telugu]

Leave a Reply

Your email address will not be published. Required fields are marked *