Dino Time 2012 BluRay 720p Dual Audio ORG [Hindi Eng] ESubs 700Mb

Dino Time 2012 BluRay 720p Dual Audio ORG [Hindi Eng] ESubs 700Mb
Dino Time 2012 BluRay 720p Dual Audio ORG [Hindi Eng] ESubs 700Mb,Dino Time 2012 hollywood Animation movie download in hindi full hd,full hollywood Animation movie Dino Time 2012 download in hindi, Dino Time 2012 720p Animation movie download in hindi,Dino Time 2012 hollywood movie download in hindi torrent,Dino Time 2012 free hollywood Animation movie download in hindi for pc,Dino Time 2012 hollywood Caroon movie download in hindi,Dino Time 2012 hollywood movie download in hindi 300mb,300 hollywood movie Dino Time 2012 download in hindi,free hd hollywood movie download in hindi

Dino Time 2012 BluRay 720p Dual Audio ORG [Hindi Eng] ESubs 700Mb

IMDB Ratings: 4.8/10 [Votes 855]
Directed: Yoon-suk Choi, John Kafka
Writers: Adam Beechen, James Greco
Released Date: 12 june 2015
Genres: Animation ,Adventure ,Family
Languages: Hindi ,English
File Size: 737MB
Film Stars: Yuri Lowenthal, William Baldwin, John DiMaggio
Movie Quality: 720p BluRay

Storyline==}} Three curious kids accidentally trip an egg-shaped time machine into operation and find themselves back 65 million years in the middle of a nest of dinosaur eggs. The first thing they see is a giant T-Rex staring down at them in happy wonder. They’re not food, they’re family! Now the kids have just until the real eggs hatch to find their way back to the present, facing other prehistoric monsters and dangers along the way. (Dino Time 2012 BluRay 720p Dual Audio ORG [Hindi Eng] ESubs 700Mb)

Dino Time 2012 BluRay 720p Dual Audio ORG [Hindi Eng] ESubs 700Mb

Dino Time 2012 BluRay 720p Dual Audio ORG [Hindi Eng] ESubs 700Mb

Dino Time 2012 BluRay 720p Dual Audio ORG [Hindi Eng] ESubs 700Mb
Dino Time 2012 BluRay 720p Dual Audio ORG [Hindi Eng] ESubs 700Mb

Dino Time 2012 BluRay 720p Dual Audio ORG [Hindi Eng] ESubs 700Mb

-=Download Links=-

Dino Time 2012 BluRay 720p Dual Audio ORG [Hindi Eng] ESubs 700Mb

Click Here =- For “Direct Download Link” In 1 Click

Direct Download Link Click Here
Download From Filerio
Download from Desiupload
Download From TusFiles
Download From Vidoza

Thanks for Downloading…………

Dino Time 2012 BluRay 720p Dual Audio ORG [Hindi Eng] ESubs 700Mb

Visit Our Other Popular Post To Related This

The Journey Of Karma 2018 HD Full Movie Free Download PDVDRip 700 MB
Incredibles 2 2018 Dual Audio [Hindi English] 480p HDRip 450Mb ESubs
Power Unlimited 2 2018 ORG Dual Audio UNCUT 480p HDRip [Hindi Telugu]
Power Unlimited 2 2018 UNCUT ORG Dual Audio 720p HDRip [Hindi Telugu]
Download Game of Thrones S02 Complete Dual Audio Hindi BluRay 720p
Download The Flash S01 Complete Dual Audio Hindi 720p BluRay
Download Indian Idol Season 10 Episode 32 21st October 2018 720p HDTV 800Mb
Download Indian Idol Season 10 Episode 31 20th October 2018 720p HDTV 800Mb
Download Comedy Circus 2018 Episode 11 20th October 2018 720p HDTV 400Mb
Download Comedy Circus 2018 Episode 12 21st October 2018 720p HDTV 400Mb
Downlolad Sanju (2018) Hindi HDTVRip 480p x264 400 MB ESub Free
Download Jalebi 2018 Hindi Full Movie PDVDRip 700MB Free Moviesjug
Download Mitron 2018 Hindi DVDScr 700 MB Free Moviesjug
Download Fryday 2018 Hindi Full Movie PDVDRip 700MB Free Moviesjug
Download Pataakha 2018 Hindi Full Movie PDVDRip 700MB Free Moviesjug
Download Helicopter Eela 2018 Hindi Full Movie PDVDRip 700MB Free
Download FryDay (2018) Hindi 720p VER 2 AAC HQ DVD SCR x264 1.5 GB
Downlolad Soorma (2018) Hindi HDRip 720p AAC 1.2 GB ESub Free
Download L7 (2018) Hindi Dubbed 720p HDRip x264 900MB
Download Game of Thrones S02 Complete Dual Audio Hindi BluRay 720p
Download The Flash S01 Complete Dual Audio Hindi 720p BluRay
Download WWE Smackdown Live 09 October 2018 HDTV 480p 300MB
Download WWE Monday Night Raw 08 October 2018 HDTV 800mb
Haseena (2018) Hindi AAC 720p HDRip x264 900 MB
Download Karwaan (2018) Hindi 720p HDRip 850Mb
Ant Man And The Wasp (2018) Dual Audio [Hindi Cleaned Eng] HDRip 720p x264 ESubs 1Gb
Download Dashing Diljala 2018 Hindi Dubbed 720p HDRip 850Mb
Download Mulk (2018) Hindi 720p HDRip x264 AAC 1.2Gb
Download Dhadak (2018) Hindi 720p HDRip x264 950Mb
Jurassic World Fallen Kingdom (2018) Hindi ORG Dual Audio 720p BluRay 1GB
Download Sui Dhaaga Made in India (2018) Hindi PDVDRip x264 AAC 700MB
Download Akira (2016) 720p UNCUT HDRip x264 [Dual Audio] [Hindi Telugu]
Zhongkui Snow Girl and the Dark Crystal (2015) Dual Audio 720p HDRip [Hindi Chinese] 1Gb
Download Saheb Biwi Aur Gangster 3 2018 Hindi 350MB HDRip 480p
Download Saheb Biwi Aur Gangster 3 2018 Hindi 720p HDRip 1Gb
Download Batti Gul Meter Chalu 2018 Hindi PreDvd Rip 700MB
Download Laila Majnu 2018 Hindi DVDScr 700MB x264 Full Movie
Download Mitron 2018 Hindi DVDScr 700 MB Free Moviesjug
Download WWE Hell In A Cell 2018 PPV HDTV 720p – Moviesjug
Download Manmarziyaan 2018 Hindi pDVDRip 700MB- Moviesjug
Download Genius (2018) Propper Audio Hindi 720p HDRip x264 1.4GB ESubs
Rampage (2018) Dual Audio ORG 720p BRRip Hindi English DD 5.1ch 1GB
Download Ant Man and the Wasp 2018 Dual Audio Hindi English 480p HDTC 300mb
Click Here For Bing.com Searchengine
Click Here For Google.co.in
Click Here For Youtube.com

Video And Audio Full Details (Properties)

General
Dino Time (2012) BluRay 720p [MoviesJug.Net] [Dual Audio] [Hindi ORG + English] x264 ESubs 700Mb.mkv
Format : Matroska
Format version : Version 4 / Version 2
File size : 738 MiB
Duration : 1 h 25 min
Overall bit rate : 1 207 kb/s
Movie name : Downloaded From [MoviesJug.Net]
Cover : Yes
Attachments : Cover.jpeg

Video
ID : 1
Format : AVC
Format/Info : Advanced Video Codec
Format profile : [email protected]
Format settings : CABAC / 5 Ref Frames
Format settings, CABAC : Yes
Format settings, RefFrames : 5 frames
Codec ID : V_MPEG4/ISO/AVC
Duration : 1 h 25 min
Bit rate : 1 044 kb/s
Width : 1 280 pixels
Height : 690 pixels
Display aspect ratio : 1.85:1
Frame rate mode : Constant
Frame rate : 23.976 (24000/1001) FPS
Original frame rate : 23.976 (23976/1000) FPS
Color space : YUV
Chroma subsampling : 4:2:0
Bit depth : 8 bits
Scan type : Progressive
Bits/(Pixel*Frame) : 0.049
Stream size : 638 MiB (86%)
Title : Downloaded From [MoviesJug.Net]
Writing library : x264 core 132
Language : English
Default : Yes
Forced : No
Color range : Limited
Color primaries : BT.709
Matrix coefficients : BT.709

Audio #1
ID : 2
Format : AAC
Format/Info : Advanced Audio Codec
Format profile : HE-AAC / LC
Format settings : Explicit
Codec ID : A_AAC-2
Duration : 1 h 25 min
Bit rate : 64.5 kb/s
Channel(s) : 2 channels
Channel positions : Front: L R
Sampling rate : 44.1 kHz / 22.05 kHz
Frame rate : 21.533 FPS (1024 SPF)
Compression mode : Lossy
Delay relative to video : 1 s 600 ms
Stream size : 39.4 MiB (5%)
Title : Downloaded From [MoviesJug.Net]
Language : Hindi
Default : Yes
Forced : No

Audio #2
ID : 3
Format : AAC
Format/Info : Advanced Audio Codec
Format profile : LC
Codec ID : A_AAC-2
Duration : 1 h 25 min
Bit rate : 96.0 kb/s
Channel(s) : 2 channels
Channel positions : Front: L R
Sampling rate : 48.0 kHz
Frame rate : 46.875 FPS (1024 SPF)
Compression mode : Lossy
Delay relative to video : 1 s 800 ms
Stream size : 58.6 MiB (8%)
Title : Downloaded From [MoviesJug.Net]
Language : English
Default : No
Forced : No

Text
ID : 4
Format : UTF-8
Codec ID : S_TEXT/UTF8
Codec ID/Info : UTF-8 Plain Text
Duration : 1 h 17 min
Bit rate : 53 b/s
Count of elements : 878
Stream size : 30.1 KiB (0%)
Title : Downloaded From [MoviesJug.Net]
Language : English
Default : Yes
Forced : No

Dino Time 2012 BluRay 720p Dual Audio ORG [Hindi Eng] ESubs 700Mb

Dino Time 2012 BluRay 720p Dual Audio ORG [Hindi Eng] ESubs 700Mb

Dino Time 2012 BluRay 720p Dual Audio ORG [Hindi Eng] ESubs 700Mb
Summary
Article Name
Dino Time 2012 BluRay 720p Dual Audio ORG [Hindi Eng] ESubs 700Mb
Description
Dino Time 2012 BluRay 720p Dual Audio ORG [Hindi Eng] ESubs 700Mb,Dino Time 2012 hollywood Animation movie download in hindi full hd,full hollywood Animation movie Dino Time 2012 download in hindi, Dino Time 2012 720p Animation movie download in hindi,Dino Time 2012 hollywood movie download in hindi torrent,Dino Time 2012 free hollywood Animation movie download in hindi for pc,Dino Time 2012 hollywood Caroon movie download in hindi,
Author
Publisher Name
Moviesjug.Net

Leave a Reply

Your email address will not be published. Required fields are marked *