Bombairiya 2019 HD Movie 720P 1GB Download/Watch Free

DOWNLOAD EVERY SHOWS/SERIAL OF ‘ZEE5’, ‘HOTSTAR’, ‘VOOT’, ‘SONYLIV’, ONLY FROM THIS SITE AFTER 7 DECEMBER 2018

CLICK HERE FOR MORE INFORMATION  अधिक जानकारी के लिए यहां क्लिक करें।

 

Bombairiya 2019 HD Movie 720P 1GB Download/Watch FreeBombairiya 2019 HD Movie 720P 1GB Download/Watch Free, Bombairiya 2019  720p 1gb full movie download openload,Bombairiya 2019 720p hd movie download,(Bombairiya 2019 HD Movie 720P 1GB Download/Watch Free),Bombairiya 2019 movie download in hd 720p,Bombairiya 2019 full movie 720p hd print download indishare clicknupload desiupload openload,Bombairiya 2019 movie download 720p for free,Bombairiya 2019 720p free hd movie download,(Bombairiya 2019 HD Movie 720P 1GB Download/Watch Free)

-= “MEDIA INFO” =-

Bombairiya 2019 HD Movie 720P 1GB Download/Watch Free
IMDB Ratings: 4.9/10 [Votes 24]

Directer :  Pia Sukanya
Writer:  Michael E. Ward, Aarti S. Bagdi
Released Date:  18 January 2019 (India)
Genres:   Comedy, Crime, Drama
Languages: Hindi
Film Stars:   Radhika Apte, Akshay Oberoi, Siddhanth Kapoor
Movie Quality: PDVDRip
File Size: 700 MB

Storyline==}} It follows the story of Meghna, who gets embroiled in a series of events after her phone gets stolen.(Bombairiya 2019 HD Movie 720P 1GB Download/Watch Free)

-= “SCREENSHOTS” =-




Bombairiya 2019 HD Movie 720P 1GB Download/Watch Free

-= “WATCH ONLINE AND DOWNLOAD LINKS” =-

Bombairiya 2019 HD Movie 720P 1GB Download/Watch Free

-= “Watch Online Links” =-

(Use “Google Chrome” Browser For Better Online Watch Or Stream)

Watch From Flix555.com 1GB
Watch From Filescdn 1GB
Watch From Vup.to 1GB

-= “720p 1GB Download Links” =-

Download From Clicknupload
Download From nxload
Download From Uploadfiles
Download From ddl.to

Thanks for Downloading……

Bombairiya 2019 HD Movie 720P 1GB Download/Watch Free

-= “Visit Our Other Popular Post To Related This” =-

Manikarnika 2019 Hindi Pdvdrip 480p 400mb Download/Watch Free
Manikarnika 2019 Hindi 700mb Pdvdrip Download And Watch Free
Incredibles 2 2018 Dual Audio [Hindi English] 480p HDRip 450Mb ESubs
Incredibles 2 2018 Dual Audio [Hindi English] 720p HDRip 1Gb ESubs
Download WWE Monday Night Raw 15 October 2018 HDTV 800mb
Download Comedy Circus 2018 Episode 10 14 October 2018 720p HDTV 350Mb
Downlolad Soorma (2018) Hindi HDRip 720p AAC 1.2 GB ESub Free
Download BHARAT: The Great Leader (Bharat Ane Nenu) 2018 Hindi Dubbed Trailer In HD 1080p 720p 480p 360p
Download Thadaka 2 Yuddham Sharanam (2018) 720p HDRip Hindi Dubbed 1GB
Download Fanney Khan (2018) Hindi Proper HDRip 480p 350MB
Fanney Khan (2018) Hindi Proper HDRip 720p AAC 1.2GB ESub
Haseena (2018) Hindi AAC 720p HDRip x264 900 MB
Download Karwaan (2018) Hindi 720p HDRip 850Mb
Download Mulk (2018) Hindi 720p HDRip x264 AAC 1.2Gb
Download Batti Gul Meter Chalu 2018 Hindi PreDvd Rip 700MB
Download Laila Majnu 2018 Hindi DVDScr 700MB x264 Full Movie
Click Here For Bing.com Searchengine
Click Here For Google.co.in
Click Here For Youtube.com

-= “Video And Audio Full Details (Properties)” =-

General
Bombairiya 2019 HD Movie 720P 1GB Download/Watch FreeDVDScr 720p 1GB.mkv
Format : Matroska
Format version : Version 4 / Version 2
File size : 1 001 MiB
Duration : 1 h 44 min
Overall bit rate : 1 335 kb/s
Movie name : Bombairiya 2019 HD Movie 720P 1GB Download/Watch Free

Video
ID : 1
Format : AVC
Format/Info : Advanced Video Codec
Format profile : [email protected]
Format settings : CABAC / 4 Ref Frames
Format settings, CABAC : Yes
Format settings, RefFrames : 4 frames
Codec ID : V_MPEG4/ISO/AVC
Duration : 1 h 44 min
Bit rate : 1 249 kb/s
Width : 1 280 pixels
Height : 576 pixels
Display aspect ratio : 2.222
Frame rate mode : Constant
Frame rate : 30.000 FPS
Color space : YUV
Chroma subsampling : 4:2:0
Bit depth : 8 bits
Scan type : Progressive
Bits/(Pixel*Frame) : 0.056
Stream size : 940 MiB (94%)
Title : Bombairiya 2019 HD Movie 720P 1GB Download/Watch Free
Language : Hindi
Default : Yes
Forced : No
Color range : Limited
Color primaries : BT.709
Transfer characteristics : BT.709
Matrix coefficients : BT.709

Audio
ID : 2
Format : AAC
Format/Info : Advanced Audio Codec
Format profile : LC
Codec ID : A_AAC-2
Duration : 1 h 44 min
Bit rate : 80.0 kb/s
Channel(s) : 2 channels
Channel positions : Front: L R
Sampling rate : 44.1 kHz
Frame rate : 43.066 FPS (1024 SPF)
Compression mode : Lossy
Stream size : 60.0 MiB (6%)
Title : Bombairiya 2019 HD Movie 720P 1GB Download/Watch Free
Language : Hindi
Default : Yes
Forced : No

Bombairiya 2019 HD Movie 720P 1GB Download/Watch Free

Bombairiya 2019 HD Movie 720P 1GB Download/Watch Free

Bombairiya 2019 HD Movie 720P 1GB Download/Watch Free
Summary
Article Name
Bombairiya 2019 HD Movie 720P 1GB Download/Watch Free
Description
Bombairiya 2019 movie download in hd 720p,Bombairiya 2019 full movie 720p hd print download indishare clicknupload desiupload openload,Bombairiya 2019 movie download 720p for free,Bombairiya 2019 720p free hd movie download
Author
Publisher Name
Moviesjug.net

Leave a Reply

Your email address will not be published. Required fields are marked *