Birth Of The Dragon 2016 Dual Audio [Hindi ORG Eng] 720p BluRay ESubs 700MB

DOWNLOAD EVERY SHOWS/SERIAL OF ‘ZEE5’, ‘HOTSTAR’, ‘VOOT’, ‘SONYLIV’, ONLY FROM THIS SITE AFTER 7 DECEMBER 2018

CLICK HERE FOR MORE INFORMATION  अधिक जानकारी के लिए यहां क्लिक करें।

 

Birth Of The Dragon 2016 Dual Audio [Hindi ORG Eng] 720p BluRay ESubs 700MB
Birth Of The Dragon 2016 Dual Audio [Hindi ORG Eng] 720p BluRay ESubs 700MB

Birth Of The Dragon 2016 Dual Audio [Hindi ORG Eng] 720p BluRay ESubs 700MB,Birth Of The Dragon 2016 hollywood movie download in hindi full hd,full hollywood movie Birth Of The Dragon 2016 download in hindi,Birth Of The Dragon 720p hollywood movie download in hindi,Birth Of The Dragon 2016 hollywood movie download in hindi torrent,Birth Of The Dragon 2016 free hollywood movie download in hindi for pc,Birth Of The Dragon 2016 hollywood movie download in hindi,Birth Of The Dragon 2016 Chinese movie download in hindi 300mb,300mb hollywood movie Birth Of The Dragon 2016 download in hindi,free hd hollywood movie download in hindi,

 

Birth Of The Dragon 2016 Dual Audio [Hindi ORG Eng] 720p BluRay ESubs 700MB
Birth Of The Dragon 2016 Dual Audio [Hindi ORG Eng] 720p BluRay ESubs 700MB

IMDB Ratings: 5.4/10
Directed:  George Nolfi
Released Date:  25 August 2017 (USA)
Genres: Action, Biography, Drama
Languages: Hindi ,English
Film Stars: Billy Magnussen, Yu Xia, Philip Ng
Movie Quality: 720p BluRay
File Size: 738MB

Storyline==}} Set against the backdrop of 1960s San Francisco, BIRTH OF THE DRAGON is a modern take on the classic movies that Bruce Lee was known for. It takes its inspiration from the epic and still controversial showdown between an up-and-coming Bruce Lee and kung fu master Wong Jack Man – a battle that gave birth to a legend.(Birth Of The Dragon 2016 Dual Audio [Hindi ORG Eng] 720p BluRay ESubs 700MB)

Birth Of The Dragon 2016 Dual Audio [Hindi ORG Eng] 720p BluRay ESubs 700MB

Birth Of The Dragon 2016 Dual Audio [Hindi ORG Eng] 720p BluRay ESubs 700MB
Birth Of The Dragon 2016 Dual Audio [Hindi ORG Eng] 720p BluRay ESubs 700MB
Birth Of The Dragon 2016 Dual Audio [Hindi ORG Eng] 720p BluRay ESubs 700MB
Birth Of The Dragon 2016 Dual Audio [Hindi ORG Eng] 720p BluRay ESubs 700MB

Birth Of The Dragon 2016 Dual Audio [Hindi ORG Eng] 720p BluRay ESubs 700MB

-=Download Links=-

Birth Of The Dragon 2016 Dual Audio [Hindi ORG Eng] 720p BluRay ESubs 700MB
Birth Of The Dragon 2016 Dual Audio [Hindi ORG Eng] 720p BluRay ESubs 700MB

Download from Filerio
Download from Desiupload
Download from TusFiles
Download from Vidoza
Download From Clicknupload

Thanks for Downloading…………

Birth Of The Dragon 2016 Dual Audio [Hindi ORG Eng] 720p BluRay ESubs 700MB
Birth Of The Dragon 2016 Dual Audio [Hindi ORG Eng] 720p BluRay ESubs 700MB

Visit Our Other Popular Post To Related This

The Journey Of Karma 2018 HD Full Movie Free Download PDVDRip 700 MB
Incredibles 2 2018 Dual Audio [Hindi English] 480p HDRip 450Mb ESubs
Power Unlimited 2 2018 ORG Dual Audio UNCUT 480p HDRip [Hindi Telugu]
Power Unlimited 2 2018 UNCUT ORG Dual Audio 720p HDRip [Hindi Telugu]
Download Game of Thrones S02 Complete Dual Audio Hindi BluRay 720p
Download The Flash S01 Complete Dual Audio Hindi 720p BluRay
Download Indian Idol Season 10 Episode 32 21st October 2018 720p HDTV 800Mb
Download Indian Idol Season 10 Episode 31 20th October 2018 720p HDTV 800Mb
Download Comedy Circus 2018 Episode 11 20th October 2018 720p HDTV 400Mb
Download Comedy Circus 2018 Episode 12 21st October 2018 720p HDTV 400Mb
Downlolad Sanju (2018) Hindi HDTVRip 480p x264 400 MB ESub Free
Download Jalebi 2018 Hindi Full Movie PDVDRip 700MB Free Moviesjug
Download Mitron 2018 Hindi DVDScr 700 MB Free Moviesjug
Download Fryday 2018 Hindi Full Movie PDVDRip 700MB Free Moviesjug
Download Pataakha 2018 Hindi Full Movie PDVDRip 700MB Free Moviesjug
Download Helicopter Eela 2018 Hindi Full Movie PDVDRip 700MB Free
Download FryDay (2018) Hindi 720p VER 2 AAC HQ DVD SCR x264 1.5 GB
Downlolad Soorma (2018) Hindi HDRip 720p AAC 1.2 GB ESub Free
Download L7 (2018) Hindi Dubbed 720p HDRip x264 900MB
Download Game of Thrones S02 Complete Dual Audio Hindi BluRay 720p
Download The Flash S01 Complete Dual Audio Hindi 720p BluRay
Download WWE Smackdown Live 09 October 2018 HDTV 480p 300MB
Download WWE Monday Night Raw 08 October 2018 HDTV 800mb
Haseena (2018) Hindi AAC 720p HDRip x264 900 MB
Download Karwaan (2018) Hindi 720p HDRip 850Mb
Ant Man And The Wasp (2018) Dual Audio [Hindi Cleaned Eng] HDRip 720p x264 ESubs 1Gb
Download Dashing Diljala 2018 Hindi Dubbed 720p HDRip 850Mb
Download Mulk (2018) Hindi 720p HDRip x264 AAC 1.2Gb
Download Dhadak (2018) Hindi 720p HDRip x264 950Mb
Jurassic World Fallen Kingdom (2018) Hindi ORG Dual Audio 720p BluRay 1GB
Download Sui Dhaaga Made in India (2018) Hindi PDVDRip x264 AAC 700MB
Download Akira (2016) 720p UNCUT HDRip x264 [Dual Audio] [Hindi Telugu]
Zhongkui Snow Girl and the Dark Crystal (2015) Dual Audio 720p HDRip [Hindi Chinese] 1Gb
Download Saheb Biwi Aur Gangster 3 2018 Hindi 350MB HDRip 480p
Download Saheb Biwi Aur Gangster 3 2018 Hindi 720p HDRip 1Gb
Download Batti Gul Meter Chalu 2018 Hindi PreDvd Rip 700MB
Download Laila Majnu 2018 Hindi DVDScr 700MB x264 Full Movie
Download Mitron 2018 Hindi DVDScr 700 MB Free Moviesjug
Download WWE Hell In A Cell 2018 PPV HDTV 720p – Moviesjug
Download Manmarziyaan 2018 Hindi pDVDRip 700MB- Moviesjug
Download Genius (2018) Propper Audio Hindi 720p HDRip x264 1.4GB ESubs
Rampage (2018) Dual Audio ORG 720p BRRip Hindi English DD 5.1ch 1GB
Download Ant Man and the Wasp 2018 Dual Audio Hindi English 480p HDTC 300mb
Click Here For Bing.com Searchengine
Click Here For Google.co.in
Click Here For Youtube.com

Video And Audio Full Details (Properties)

General
Birth Of The Dragon (2016) [Moviesjug.net]Dual Audio [Hindi English] 720p BluRay x264 ESubs
Format : Matroska
Format version : Version 4 / Version 2
File size : 738 MiB
Duration : 1 h 35 min
Overall bit rate : 1 080 kb/s
Movie name : Downloaded From [Moviesjug.net]

Video
ID : 1
Format : AVC
Format/Info : Advanced Video Codec
Format profile : [email protected]
Format settings : CABAC / 4 Ref Frames
Format settings, CABAC : Yes
Format settings, RefFrames : 4 frames
Codec ID : V_MPEG4/ISO/AVC
Duration : 1 h 35 min
Bit rate : 900 kb/s
Width : 1 280 pixels
Height : 534 pixels
Display aspect ratio : 2.40:1
Original display aspect ratio : 2.40:1
Frame rate mode : Constant
Frame rate : 23.976 (24000/1001) FPS
Color space : YUV
Chroma subsampling : 4:2:0
Bit depth : 8 bits
Scan type : Progressive
Bits/(Pixel*Frame) : 0.055
Stream size : 615 MiB (83%)
Title : Downloaded From [Moviesjug.net]
Writing library : x264 core 148
Language : English
Default : Yes
Forced : No

Audio #1
ID : 2
Format : AAC
Format/Info : Advanced Audio Codec
Format profile : LC
Codec ID : A_AAC-2
Duration : 1 h 35 min
Bit rate : 137 kb/s
Channel(s) : 2 channels
Channel positions : Front: L R
Sampling rate : 48.0 kHz
Frame rate : 46.875 FPS (1024 SPF)
Compression mode : Lossy
Delay relative to video : -43 ms
Stream size : 93.7 MiB (13%)
Title : Downloaded From [Moviesjug.net]
Language : English
Default : No
Forced : No

Audio #2
ID : 3
Format : AAC
Format/Info : Advanced Audio Codec
Format profile : HE-AAC / LC
Format settings : NBC
Codec ID : A_AAC-5
Duration : 1 h 35 min
Bit rate : 40.0 kb/s
Channel(s) : 2 channels
Channel positions : Front: L R
Sampling rate : 48.0 kHz / 24.0 kHz
Frame rate : 23.438 FPS (1024 SPF)
Compression mode : Lossy
Delay relative to video : -43 ms
Stream size : 27.3 MiB (4%)
Title : Downloaded From [Moviesjug.net]
Language : Hindi
Default : Yes
Forced : No

Text
ID : 4
Format : UTF-8
Codec ID : S_TEXT/UTF8
Codec ID/Info : UTF-8 Plain Text
Duration : 1 h 23 min
Bit rate : 47 b/s
Count of elements : 1027
Stream size : 29.3 KiB (0%)
Title : Downloaded From [Moviesjug.net]
Language : English
Default : Yes
Forced : No

Birth Of The Dragon 2016 Dual Audio [Hindi ORG Eng] 720p BluRay ESubs 700MB

Birth Of The Dragon 2016 Dual Audio [Hindi ORG Eng] 720p BluRay ESubs 700MB

Birth Of The Dragon 2016 Dual Audio [Hindi ORG Eng] 720p BluRay ESubs 700MB
Summary
Article Name
Birth Of The Dragon 2016 Dual Audio [Hindi ORG Eng] 720p BluRay ESubs 700MB
Description
Birth Of The Dragon 2016 Dual Audio [Hindi ORG Eng] 720p BluRay ESubs 700MB,Birth Of The Dragon 2016 hollywood movie download in hindi full hd,full hollywood movie Birth Of The Dragon 2016 download in hindi,Birth Of The Dragon 720p hollywood movie download in hindi,Birth Of The Dragon 2016 hollywood movie download in hindi torrent,Birth Of The Dragon 2016 free hollywood movie download in hindi for pc,Birth Of The Dragon 2016 hollywood movie download in hindi,
Author
Publisher Name
Moviesjug.Net

Leave a Reply

Your email address will not be published. Required fields are marked *