Bhabhi Ji Ghar Par Hain Ep 988 11th Dec 2018 WEBRip 720p/480p 130MB/90MB

Bhabhi Ji Ghar Par Hain Ep 988 11th Dec 2018 WEBRip 720p/480p Bhabhi Ji Ghar Par Hain Ep 988 11th Dec 2018 WEBRip 720p/480p,Bhabhi Ji Ghar Par Hain today episode download in hd,Bhabhi Ji Ghar Par Hain serial latest hd episode download free,Bhabhi Ji Ghar Par Hain 11 dsec 2018 episode download in hd,&tv serial Bhabhi Ji Ghar Par Hain 11 dec episode download full hd,Bhabhi Ji Ghar Par Hain Ep 988 11th Dec 2018 WEBRip 720p/480p

Bhabhi Ji Ghar Par Hain Ep 988 11th Dec 2018 WEBRip 720p/480p

Bhabhi Ji Ghar Par Hain Ep 988 11th Dec 2018 WEBRip 720p/480p

Show Name : Bhabiji Ghar Par Hain !
Directed By : Shashank Bali
Written By : Manoj Santoshi

Language : Hindi
Quality : 720p And 480p WebRip

Storyline==}} The show takes place in the fictional “Modern Colony” located in Kanpur, Uttar Pradesh, India and revolves around two neighbouring couples. Both the husbands are fed up with their respective marriages and are smitten by each other’s wives, unbeknownst to each other. Manmohan Tiwari is a successful undergarment businessman, whose wife Angoori is a simple and naive housewife. Their neighbour, Vibhuti Narayan Mishra, used to be an unsuccessful insurance agent and is now unemployed. Often called as “Nalla” (a slang for being unemployed), he spends most of his time doing household chores. On the other hand, his wife Anita is a headstrong, smart and modern day lady who runs grooming classes. She is the breadwinner of the family and despises her husband’s unemployment and sheer laziness. (Bhabhi Ji Ghar Par Hain Ep 988 11th Dec 2018 WEBRip 720p/480p)

Kumkum Bhagya Ep 1250 11th Dec 2018 WEBRip 720p/480p 130MB/90MB

Bhabhi Ji Ghar Par Hain Ep 988 11th Dec 2018 WEBRip 720p/480p

Bhabhi Ji Ghar Par Hain Ep 988 11th Dec 2018 WEBRip 720p/480p

-= Watch Online Links =-

Watch From Vidoza
Watch From Hxload

-= Download Links =-

Kumkum Bhagya Ep 1250 11th Dec 2018 WEBRip 720p/480p 130MB/90MB

“720 Download Links”

Download From Filerio
Download From Clicknupload
Download From Vidoza

“480p Download Links”

Download From Filerio
Download From Clicknupload
Download From Vidoza

Thanks for Downloading…………

Kumkum Bhagya Ep 1250 11th Dec 2018 WEBRip 720p/480p 130MB/90MB

Visit Our Other Popular Post To Related This

Goosebumps 2 (2018) Dual Audio 720p HDTS x264 [Hindi+English] 950 MB
Download Indian Idol Season 10 Episode 33 27 October 2018 HDTV 720p 800Mb
Hotel Transylvania 3 Summer Vacation 2018 Dual Audio ORG [Hindi English] 720p BluRay 850 MB
Skyscraper 2018 Dual Audio ORG Hindi 720p BluRay [Hindi English] 900 MB ESubs
Mohalla Assi 2018 Hindi HD Full Movie Free Download PDVDRip 700 MB
Baazaar 2018 HD Full Movie Free Download PDVDRip 700 MB
The Journey Of Karma 2018 HD Full Movie Free Download PDVDRip 700 MB (Poonam Pandey)
Haseena (2018) Hindi AAC 720p HDRip x264 900 MB
Download Karwaan (2018) Hindi 720p HDRip 850Mb
Ant Man And The Wasp (2018) Dual Audio [Hindi Cleaned Eng] HDRip 720p x264 ESubs 1Gb
Download Dashing Diljala 2018 Hindi Dubbed 720p HDRip 850Mb
Download Mulk (2018) Hindi 720p HDRip x264 AAC 1.2Gb
Download Dhadak (2018) Hindi 720p HDRip x264 950Mb
Jurassic World Fallen Kingdom (2018) Hindi ORG Dual Audio 720p BluRay 1GB
Download Sui Dhaaga Made in India (2018) Hindi PDVDRip x264 AAC 700MB
Power Unlimited 2 (Touch Chesi Chudu) 2018 Dual Audio 480p HDRip [Hindi Telugu]
18+ X X X Uncensored (2018) S01 All 5 Episodes Hindi 720p HDRip x264 800mb
Power Unlimited 2 (Touch Chesi Chudu) 2018 Dual Audio 720p HDRip [Hindi Telugu]
Download Akira (2016) 720p UNCUT HDRip x264 [Dual Audio] [Hindi Telugu]
Zhongkui Snow Girl and the Dark Crystal (2015) Dual Audio 720p HDRip [Hindi Chinese] 1Gb
Download Saheb Biwi Aur Gangster 3 2018 Hindi 350MB HDRip 480p
Download Saheb Biwi Aur Gangster 3 2018 Hindi 720p HDRip 1Gb
Download Batti Gul Meter Chalu 2018 Hindi PreDvd Rip 700MB
Download Laila Majnu 2018 Hindi DVDScr 700MB x264 Full Movie
Download Mitron 2018 Hindi DVDScr 700 MB Free Moviesjug
Download Manmarziyaan 2018 Hindi pDVDRip 700MB- Moviesjug
Download Genius (2018) Propper Audio Hindi 720p HDRip x264 1.4GB ESubs
Rampage (2018) Dual Audio ORG 720p BRRip Hindi English DD 5.1ch 1GB
Click Here For Bing.com Searchengine
Click Here For Google.co.in
Click Here For Youtube.com

Video And Audio Full Details (Properties) 720p PRINT

General
Bhabhi Ji Ghar Par Hain Ep 988 11th Dec 2018 WEBRip 720p/480p
Format : Matroska
Format version : Version 4 / Version 2
File size : 133 MiB
Duration : 20 min 55 s
Overall bit rate : 887 kb/s
Movie name : Bhabhi Ji Ghar Par Hain Ep 988 11th Dec 2018 WEBRip 720p/480p

Video
ID : 1
Format : AVC
Format/Info : Advanced Video Codec
Format profile : [email protected]
Format settings : CABAC / 4 Ref Frames
Format settings, CABAC : Yes
Format settings, RefFrames : 4 frames
Codec ID : V_MPEG4/ISO/AVC
Duration : 20 min 55 s
Bit rate : 800 kb/s
Width : 1 024 pixels
Height : 576 pixels
Display aspect ratio : 16:9
Frame rate mode : Constant
Frame rate : 25.000 FPS
Color space : YUV
Chroma subsampling : 4:2:0
Bit depth : 8 bits
Scan type : Progressive
Bits/(Pixel*Frame) : 0.054
Stream size : 119 MiB (89%)
Title :Bhabhi Ji Ghar Par Hain Ep 988 11th Dec 2018 WEBRip 720p/480p
Language : Hindi
Default : Yes
Forced : No

Audio
ID : 2
Format : AAC
Format/Info : Advanced Audio Codec
Format profile : LC
Codec ID : A_AAC-2
Duration : 20 min 55 s
Bit rate : 91.9 kb/s
Channel(s) : 2 channels
Channel positions : Front: L R
Sampling rate : 48.0 kHz
Frame rate : 46.875 FPS (1024 SPF)
Compression mode : Lossy
Stream size : 13.8 MiB (10%)
Title : Bhabhi Ji Ghar Par Hain Ep 988 11th Dec 2018 WEBRip 720p/480p
Language : Hindi
Default : Yes
Forced : No

Bhabhi Ji Ghar Par Hain Ep 988 11th Dec 2018 WEBRip 720p/480p

Bhabhi Ji Ghar Par Hain Ep 988 11th Dec 2018 WEBRip 720p/480p

Bhabhi Ji Ghar Par Hain Ep 988 11th Dec 2018 WEBRip 720p/480p
Summary
Article Name
Bhabhi Ji Ghar Par Hain Ep 988 11th Dec 2018 WEBRip 720p/480p
Description
Bhabhi Ji Ghar Par Hain 11 dsec 2018 episode download in hd,&tv serial Bhabhi Ji Ghar Par Hain 11 dec episode download full hd
Author
Publisher Name
Moviesjug.net

2 comments

Leave a Reply

Your email address will not be published. Required fields are marked *