Baazaar 2018 HD Full Movie Free Download PDVDRip 700 MB

Baazaar 2018 HD Full Movie Free Download PDVDRip 700 MB
Baazaar 2018 HD Full Movie Free Download PDVDRip 700 MB

Baazaar 2018 HD Full Movie Free Download PDVDRip 700 MB,Baazaar 2018 movie download 720p,Baazaar 2018 hd movie free download,Baazaar 2018 full movie in hd download,Baazaar 2018 hd movie free download,download movie Baazaar 2018 in hd,Baazaar 2018 full movie download 1080p,Baazaar 2018 full movie download filmywap,Baazaar 2018 full movie download 720p free,(Baazaar 2018 HD Full Movie Free Download PDVDRip 700 MB)Baazaar 2018 full movie download 720p in hindi,Baazaar 2018 full movie download in hindi mp4,Baazaar 2018 full movie download utorrent free download,Baazaar 2018 HD Full Movie Free Download PDVDRip 700 MB

Baazaar 2018 full movie dailymotion download,Baazaar 2018 full movie download 720p filmywap hd download,Baazaar 2018 movie download 720p,Baazaar 2018 movie hd download ,Baazaar 2018 full movie in hd download,download Baazaar 2018 movie hd,Baazaar 2018 hd movie free download,full movie Baazaar 2018 download,Baazaar full movie full hd,download movie Baazaar Saif Ali Khan 2018 in hd,Baazaar 2018 Radhika Aapte full movie hindi download,Baazaar 2018 full movie 720p download,Baazaar 2018 movie download hindi,Baazaar 2018 2017 full movie download,Baazaar 2018 free download,Baazaar 2018 movie free download hd,Baazaar 2018 hindi full movie download,Baazaar 2018 full hd movie 2017,Baazaar 2018 film hd download,Baazaar 2018 full hd,Baazaar 2018 movie hindi download,

 

Baazaar 2018 HD Full Movie Free Download PDVDRip 700 MB
Baazaar 2018 HD Full Movie Free Download PDVDRip 700 MB

Baazaar 2018 HD Full Movie Free Download PDVDRip 700 MB
IMDB Ratings: 7.6/1
0
Directed: Gauravv K. Chawla
Writer: Aseem Arora, Aseem Arora
Released Date: 26 October 2018 (india)
Genres: Comedy , Drama
Languages: Hindi
Film Stars: Radhika Apte, Saif Ali Khan, Chitrangda Singh
Movie Quality: PDVDRip
File Size: 700MB

Storyline==}} Baazaar is a 2018 film starring Saif Ali Khan, Chitrangada Singh and Radhika Apte. With a plot revolving around stock-trading, the film, according to director Gauravv K. Chawla’s is about making it in the big bad world of Mumbai.(Baazaar 2018 HD Full Movie Free Download PDVDRip 700 MB)

Baazaar 2018 HD Full Movie Free Download PDVDRip 700 MB
Baazaar 2018 HD Full Movie Free Download PDVDRip 700 MB
Baazaar 2018 HD Full Movie Free Download PDVDRip 700 MB
Baazaar 2018 HD Full Movie Free Download PDVDRip 700 MB

Baazaar 2018 HD Full Movie Free Download PDVDRip 700 MB

-=Download Links=-

Baazaar 2018 HD Full Movie Free Download PDVDRip 700 MB
Baazaar 2018 HD Full Movie Free Download PDVDRip 700 MB

Download Links will Be Updated Soon………

Download From Openload
Download From Clicknupload
Download From Desiupload

Thanks for Downloading……

Baazaar 2018 HD Full Movie Free Download PDVDRip 700 MB
Baazaar 2018 HD Full Movie Free Download PDVDRip 700 MB

Visit Our Other Popular Post To Related This

Incredibles 2 2018 Dual Audio [Hindi English] 480p HDRip 450Mb ESubs
Incredibles 2 2018 Dual Audio [Hindi English] 720p HDRip 1Gb ESubs
Download WWE Monday Night Raw 15 October 2018 HDTV 800mb
Download Comedy Circus 2018 Episode 10 14 October 2018 720p HDTV 350Mb
Download Indian Idol Season 10 Episode 30 14th October 2018 720p HDTV 550Mb
Downlolad Sanju Full Movie (2018) Hindi WEB HD 480p 400 MB ESub
Downlolad Sanju (2018) Hindi HDTVRip 720p AAC 1.2 GB ESub Free
Download Jalebi 2018 Hindi Full Movie PDVDRip 700MB Free Moviesjug
Download Mitron 2018 Hindi DVDScr 700 MB Free Moviesjug
Download Fryday 2018 Hindi Full Movie PDVDRip 700MB Free Moviesjug
Download Pataakha 2018 Hindi Full Movie PDVDRip 700MB Free Moviesjug
Download Helicopter Eela 2018 Hindi Full Movie PDVDRip 700MB Free
Download FryDay (2018) Hindi 720p VER 2 AAC HQ DVD SCR x264 1.5 GB
Downlolad Soorma (2018) Hindi HDRip 720p AAC 1.2 GB ESub Free
Download BHARAT: The Great Leader (Bharat Ane Nenu) 2018 Hindi Dubbed Trailer In HD 1080p 720p 480p 360p
Download Thadaka 2 Yuddham Sharanam (2018) 720p HDRip Hindi Dubbed 1GB
Download Fanney Khan (2018) Hindi Proper HDRip 480p 350MB
Fanney Khan (2018) Hindi Proper HDRip 720p AAC 1.2GB ESub
Haseena (2018) Hindi AAC 720p HDRip x264 900 MB
Download Karwaan (2018) Hindi 720p HDRip 850Mb
Download Mulk (2018) Hindi 720p HDRip x264 AAC 1.2Gb
Download Dhadak (2018) Hindi 720p HDRip x264 950Mb
Download Sui Dhaaga Made in India (2018) Hindi PDVDRip x264 AAC 700MB
18+ X X X Uncensored (2018) S01 All 5 Episodes Hindi 720p HDRip x264 800mb
Download Saheb Biwi Aur Gangster 3 2018 Hindi 350MB HDRip 480p
Download Batti Gul Meter Chalu 2018 Hindi PreDvd Rip 700MB
Download Laila Majnu 2018 Hindi DVDScr 700MB x264 Full Movie
Click Here For Bing.com Searchengine
Click Here For Google.co.in
Click Here For Youtube.com

Video And Audio Full Details (Properties)

General
Baazaar 2018 HD Full Movie Free Download PDVDRip 700 MB
Format : Matroska
Format version : Version 4 / Version 2
File size : 727 MiB
Duration : 2 h 14 min
Overall bit rate : 755 kb/s
Movie name : Baazaar 2018 HD Full Movie Free Download PDVDRip 700 MB

Video
ID : 1
Format : AVC
Format/Info : Advanced Video Codec
Format profile : [email protected]
Format settings : CABAC / 4 Ref Frames
Format settings, CABAC : Yes
Format settings, RefFrames : 4 frames
Codec ID : V_MPEG4/ISO/AVC
Duration : 2 h 14 min
Bit rate : 671 kb/s
Width : 720 pixels
Height : 306 pixels
Display aspect ratio : 2.35:1
Frame rate mode : Constant
Frame rate : 25.000 FPS
Color space : YUV
Chroma subsampling : 4:2:0
Bit depth : 8 bits
Scan type : Progressive
Bits/(Pixel*Frame) : 0.122
Stream size : 648 MiB (89%)
Title : Baazaar 2018 HD Full Movie Free Download PDVDRip 700 MB
Writing library : x264 core 155 r2901 7d0ff22
Language : Hindi
Default : Yes
Forced : No
Color range : Limited
Color primaries : BT.601 PAL
Transfer characteristics : BT.709
Matrix coefficients : BT.601

Audio
ID : 2
Format : MPEG Audio
Format version : Version 1
Format profile : Layer 3
Format settings : Joint stereo / MS Stereo
Codec ID : A_MPEG/L3
Codec ID/Hint : MP3
Duration : 2 h 14 min
Bit rate mode : Constant
Bit rate : 80.0 kb/s
Channel(s) : 2 channels
Sampling rate : 48.0 kHz
Frame rate : 41.667 FPS (1152 SPF)
Compression mode : Lossy
Delay relative to video : 9 ms
Stream size : 77.0 MiB (11%)
Title : Baazaar 2018 HD Full Movie Free Download PDVDRip 700 MB
Language : Hindi
Default : Yes
Forced : No

Baazaar 2018 HD Full Movie Free Download PDVDRip 700 MB

Baazaar 2018 HD Full Movie Free Download PDVDRip 700 MB

Baazaar 2018 HD Full Movie Free Download PDVDRip 700 MB
Summary
Article Name
Baazaar 2018 HD Full Movie Free Download PDVDRip 700 MB
Description
Baazaar 2018 HD Full Movie Free Download PDVDRip 700 MB,Baazaar 2018 movie download 720p,Baazaar 2018 hd movie free download,Baazaar 2018 full movie in hd download,Baazaar 2018 hd movie free download,download movie Baazaar 2018 in hd,Baazaar 2018 full movie download 1080p,Baazaar 2018 full movie download filmywap,Baazaar 2018 full movie download 720p free,(Baazaar 2018 HD Full Movie Free Download PDVDRip 700 MB)Baazaar 2018 full movie download 720p in hindi,Baazaar 2018 full movie download in hindi mp4,Baazaar 2018 full movie download utorrent free download,Baazaar 2018 HD Full Movie Free Download PDVDRip 700 MB
Author
Publisher Name
Moviesjug.net

Leave a Reply

Your email address will not be published. Required fields are marked *