Aquaman (2018) English [Moviesjug.net] 720p DVDScr x264 1GB

Aquaman (2018) English [Moviesjug.net] 720p DVDScr x264 1GB,Aquaman (2018) movie hindi  audio download 720p,Aquaman (2018) hd movie free org print download,Aquaman (2018) full movie in hd download,Aquaman (2018) origional hd movie free download,download movie Aquaman (2018) print in hd,Aquaman (2018) full movie download in full hd 1080p,Aquaman (2018) original print full hd movie download filmywap,Aquaman (2018) full movie download 720p dual audio org free,(Aquaman (2018) English [Moviesjug.net] 720p DVDScr x264 1GB),Aquaman (2018) full hd org movie download 720p in hindi Audios,Aquaman (2018) movie download in hindi origional mp4,Aquaman (2018)full movie download utorrent free download in full hd,Aquaman (2018) English [Moviesjug.net] 720p DVDScr x264 1GB

Aquaman (2018) English [Moviesjug.net] 720p DVDScr x264 1GB

IMDB Ratings: 8.3/10 [Votes= 1,142]
Genres: Action, Adventure, Fantasy
Release Date : 21 December 2018 (USA)

Language: English
Quality: 720p DVDCSR
Size: 1 GB
Director: James Wan
Writer: David Leslie Johnson-McGoldrick , Will Beall
Stars:  Jason Momoa, Amber Heard, Willem Dafoe

Storyline==}} Arthur Curry learns that he is the heir to the underwater kingdom of Atlantis, and must step forward to lead his people and be a hero to the world.(Aquaman (2018) English [Moviesjug.net] 720p DVDScr x264 1GB)

Aquaman (2018) English [Moviesjug.net] 720p DVDScr x264 1GB

Aquaman (2018) English [Moviesjug.net] 720p DVDScr x264 1GB

Aquaman (2018) English [Moviesjug.net] 720p DVDScr x264 1GB
Aquaman (2018) English [Moviesjug.net] 720p DVDScr x264 1GB
Aquaman (2018) English [Moviesjug.net] 720p DVDScr x264 1GB
Aquaman (2018) English [Moviesjug.net] 720p DVDScr x264 1GB
Aquaman (2018) English [Moviesjug.net] 720p DVDScr x264 1GB
Aquaman (2018) English [Moviesjug.net] 720p DVDScr x264 1GB
Aquaman (2018) English [Moviesjug.net] 720p DVDScr x264 1GB
Aquaman (2018) English [Moviesjug.net] 720p DVDScr x264 1GB
Aquaman (2018) English [Moviesjug.net] 720p DVDScr x264 1GB

-=Watch Online Links=-

Download From Vidoza
Download From TusFiles
Mowgli (2018) Dual Audio 720p HDRip x264 [Hindi+Eng] ESubs 850 MB

-=Download Links=-

Mowgli (2018) Dual Audio 720p HDRip x264 [Hindi+Eng] ESubs 850 MB

Download From Openload
Download From Filerio
Download from Desiupload
Download From TusFiles
Download From Vidoza
Download from UploadFiles

Thanks for Downloading…………

The Nun 2018 BluRay 720p ORG Dual Audio [Hindi + Eng] ESubs 750MB

Visit Our Other Popular Post To Related This

The Journey Of Karma 2018 HD Full Movie Free Download PDVDRip 700 MB
Incredibles 2 2018 Dual Audio [Hindi English] 480p HDRip 450Mb ESubs
Power Unlimited 2 2018 ORG Dual Audio UNCUT 480p HDRip [Hindi Telugu]
Power Unlimited 2 2018 UNCUT ORG Dual Audio 720p HDRip [Hindi Telugu]
Download Game of Thrones S02 Complete Dual Audio Hindi BluRay 720p
Download The Flash S01 Complete Dual Audio Hindi 720p BluRay
Download Indian Idol Season 10 Episode 32 21st October 2018 720p HDTV 800Mb
Download Indian Idol Season 10 Episode 31 20th October 2018 720p HDTV 800Mb
Download Comedy Circus 2018 Episode 11 20th October 2018 720p HDTV 400Mb
Download Comedy Circus 2018 Episode 12 21st October 2018 720p HDTV 400Mb
Downlolad Sanju (2018) Hindi HDTVRip 480p x264 400 MB ESub Free
Download Jalebi 2018 Hindi Full Movie PDVDRip 700MB Free Moviesjug
Download Mitron 2018 Hindi DVDScr 700 MB Free Moviesjug
Download Fryday 2018 Hindi Full Movie PDVDRip 700MB Free Moviesjug
Download Pataakha 2018 Hindi Full Movie PDVDRip 700MB Free Moviesjug
Download Helicopter Eela 2018 Hindi Full Movie PDVDRip 700MB Free
Download FryDay (2018) Hindi 720p VER 2 AAC HQ DVD SCR x264 1.5 GB
Downlolad Soorma (2018) Hindi HDRip 720p AAC 1.2 GB ESub Free
Download L7 (2018) Hindi Dubbed 720p HDRip x264 900MB
Download Game of Thrones S02 Complete Dual Audio Hindi BluRay 720p
Download The Flash S01 Complete Dual Audio Hindi 720p BluRay
Download WWE Smackdown Live 09 October 2018 HDTV 480p 300MB
Download WWE Monday Night Raw 08 October 2018 HDTV 800mb
Haseena (2018) Hindi AAC 720p HDRip x264 900 MB
Download Karwaan (2018) Hindi 720p HDRip 850Mb
Ant Man And The Wasp (2018) Dual Audio [Hindi Cleaned Eng] HDRip 720p x264 ESubs 1Gb
Download Dashing Diljala 2018 Hindi Dubbed 720p HDRip 850Mb
Download Mulk (2018) Hindi 720p HDRip x264 AAC 1.2Gb
Download Dhadak (2018) Hindi 720p HDRip x264 950Mb
Jurassic World Fallen Kingdom (2018) Hindi ORG Dual Audio 720p BluRay 1GB
Download Sui Dhaaga Made in India (2018) Hindi PDVDRip x264 AAC 700MB
Download Akira (2016) 720p UNCUT HDRip x264 [Dual Audio] [Hindi Telugu]
Zhongkui Snow Girl and the Dark Crystal (2015) Dual Audio 720p HDRip [Hindi Chinese] 1Gb
Download Saheb Biwi Aur Gangster 3 2018 Hindi 350MB HDRip 480p
Download Saheb Biwi Aur Gangster 3 2018 Hindi 720p HDRip 1Gb
Download Batti Gul Meter Chalu 2018 Hindi PreDvd Rip 700MB
Download Laila Majnu 2018 Hindi DVDScr 700MB x264 Full Movie
Download Mitron 2018 Hindi DVDScr 700 MB Free Moviesjug
Download WWE Hell In A Cell 2018 PPV HDTV 720p – Moviesjug
Download Manmarziyaan 2018 Hindi pDVDRip 700MB- Moviesjug
Download Genius (2018) Propper Audio Hindi 720p HDRip x264 1.4GB ESubs
Rampage (2018) Dual Audio ORG 720p BRRip Hindi English DD 5.1ch 1GB
Download Ant Man and the Wasp 2018 Dual Audio Hindi English 480p HDTC 300mb
Click Here For Bing.com Searchengine
Click Here For Google.co.in
Click Here For Youtube.com

Video And Audio Full Details (Properties)

General
UAquaman (2018) English [Moviesjug.net] 720p DVDScr x264 1GB.mkv
Format : Matroska
Format version : Version 4 / Version 2
File size : 1.06 GiB
Duration : 2 h 10 min
Overall bit rate : 1 153 kb/s
Movie name : Downloaded From [Moviesjug.net]

Video
ID : 1
Format : AVC
Format/Info : Advanced Video Codec
Format profile : [email protected]
Format settings : CABAC / 4 Ref Frames
Format settings, CABAC : Yes
Format settings, RefFrames : 4 frames
Codec ID : V_MPEG4/ISO/AVC
Duration : 2 h 10 min
Bit rate : 1 024 kb/s
Width : 1 280 pixels
Height : 720 pixels
Display aspect ratio : 16:9
Frame rate mode : Constant
Frame rate : 23.976 (24000/1001) FPS
Color space : YUV
Chroma subsampling : 4:2:0
Bit depth : 8 bits
Scan type : Progressive
Bits/(Pixel*Frame) : 0.046
Stream size : 958 MiB (89%)
Title : Downloaded From [Moviesjug.net]
Writing library : x264 core 155
Language : English
Default : Yes
Forced : No

Audio
ID : 2
Format : AAC
Format/Info : Advanced Audio Codec
Format profile : LC
Codec ID : A_AAC-2
Duration : 2 h 10 min
Bit rate : 128 kb/s
Channel(s) : 2 channels
Channel positions : Front: L R
Sampling rate : 48.0 kHz
Frame rate : 46.875 FPS (1024 SPF)
Compression mode : Lossy
Delay relative to video : -21 ms
Stream size : 120 MiB (11%)
Title : Downloaded From [Moviesjug.net]
Language : English
Default : Yes
Forced : No

Aquaman (2018) English [Moviesjug.net] 720p DVDScr x264 1GB

Aquaman (2018) English [Moviesjug.net] 720p DVDScr x264 1GB

Aquaman (2018) English [Moviesjug.net] 720p DVDScr x264 1GB
Summary
Article Name
Aquaman (2018) English [Moviesjug.net] 720p DVDScr x264 1GB
Description
Aquaman (2018) English [Moviesjug.net] 720p DVDScr x264 1GB,Aquaman (2018) movie hindi audio download 720p,Aquaman (2018) hd movie free org print download,Aquaman (2018) full movie in hd download,Aquaman (2018) origional hd movie free download,download movie Aquaman (2018) print in hd,Aquaman (2018) full movie download in full hd 1080p,Aquaman (2018) original print full hd movie download filmywap,Aquaman (2018) full movie download 720p dual audio org free,
Author
Publisher Name
Moviesjug.Net

Leave a Reply

Your email address will not be published. Required fields are marked *