18+ X X X Uncensored (2018) S01 All 5 Episodes Hindi 720p HDRip x264 800mb

18+ X X X Uncensored (2018) S01 All 5 Episodes Hindi 720p HDRip x264 800mb
X X X Uncensored (2018) S01 Screenshots,Pics,Posters,Images

18+ X X X Uncensored (2018) S01 All 5 Episodes Hindi 720p HDRip x264 800mb,Download X X X Uncensored (2018) S01 All 5 Episodes Hindi 720p BluRay,X X X Uncensored (2018) S01 All 5 Episodes Hindi download in hindi in hd for free,X X X Uncensored (2018) S01 All 5 Episodes Hindi download for pc,X X X Uncensored (2018) S01 All Episodes download in hindi hd 1080p 720p 480p ,X X X Uncensored (2018) S01 All Episodes Hindi hindi download for mobile,X X X Uncensored (2018) Seasion 1 All Episodes download in hd for free,X X X Uncensored (2018) S01 Episodes download in hindi,X X X Uncensored (2018) S01 All Episodes Hindi download,download X X X Uncensored (2018) S01episode 1 episode 2 episode 3 episode 4 episode 5 Download 300mb 400mb 100mb 1gb free,18+ X X X Uncensored (2018) S01 All 5 Episodes Hindi 720p HDRip x264 800mb,

18+ X X X Uncensored (2018) S01 All 5 Episodes Hindi 720p HDRip x264 800mb
X X X Uncensored (2018) S01 Screenshots,Pics,Posters,Images

IMDB Ratings: 5.3/10
Directed: Ken Ghosh
Released Date:  27 September (2018)
Genres: Drama,Romance,Adult
Languages: Hindi ,
TV Stars:  Rithvik Dhanjani, Kyra Dutt, Aparna Bajpai
Movie Quality: 720p HDRip
File Size: 800MB

Storyline==}} It’s sexy. It’s racy. It’s India’s hottest original show. Watch on ALTBalaji.

18+ X X X Uncensored (2018) S01 All 5 Episodes Hindi 720p HDRip x264 800mb
X X X Uncensored (2018) S01 Screenshots,Pics,Posters,Images

-==-“All 5 Episodes Add In One Video File”-==-

18+ X X X Uncensored (2018) S01 All 5 Episodes Hindi 720p HDRip x264 800mb
X X X Uncensored (2018) S01 Screenshots,Pics,Posters,Images

Download Links All 5 Episodes 720p

Download From Openload
Download From Clicknupload
Download From Desiupload
Download From Uploadfiles

Video And Audio Full Details

General
18+ X X X Uncensored (2018) S01 All 5 Episodes Hindi 720p HDRip x264 800mb.mkv
Format : Matroska
Format version : Version 4 / Version 2
File size : 815 MiB
Duration : 1 h 46 min
Overall bit rate : 1 066 kb/s
Movie name :  18+ X X X Uncensored (2018) S01 All 5 Episodes Hindi 720p HDRip x264 800mb

Video
ID : 1
Format : AVC
Format/Info : Advanced Video Codec
Format profile : [email protected]
Format settings : CABAC / 4 Ref Frames
Format settings, CABAC : Yes
Format settings, RefFrames : 4 frames
Codec ID : V_MPEG4/ISO/AVC
Duration : 1 h 46 min
Bit rate : 1 000 kb/s
Width : 1 280 pixels
Height : 544 pixels
Display aspect ratio : 2.35:1
Frame rate mode : Constant
Frame rate : 23.976 (24000/1001) FPS
Color space : YUV
Chroma subsampling : 4:2:0
Bit depth : 8 bits
Scan type : Progressive
Bits/(Pixel*Frame) : 0.060
Stream size : 764 MiB (94%)
Title : 18+ X X X Uncensored (2018) S01 All 5 Episodes Hindi 720p HDRip x264 800mb
Language : Hindi
Default : Yes
Forced : No

Audio
ID : 2
Format : AAC
Format/Info : Advanced Audio Codec
Format profile : HE-AAC / LC
Format settings : NBC
Codec ID : A_AAC-5
Duration : 1 h 46 min
Bit rate : 64.0 kb/s
Channel(s) : 2 channels
Channel positions : Front: L R
Sampling rate : 48.0 kHz / 24.0 kHz
Frame rate : 23.438 FPS (1024 SPF)
Compression mode : Lossy
Delay relative to video : -105 ms
Stream size : 48.9 MiB (6%)
Title : 18+ X X X Uncensored (2018) S01 All 5 Episodes Hindi 720p HDRip x264 800mb
Language : Hindi
Default : Yes
Forced : No

Visit Our Other Popular Post To Related This

Download The Flash S01 Complete Dual Audio Hindi 720p BluRay
WWE Monday Night Raw 24 September 2018 HDTV 800mb
WWE Smackdown Live 25 September 2018 HDTV 480p 300MB
Download WWE Hell In A Cell 2018 PPV WebRip 1.5 GB
Download WWE Hell In A Cell 2018 PPV WEBRip 480p x264 800MB
WWE Monday Night Raw 10 September 2018 HDTV 480p 700mb
WWE Monday Night Raw 17 September 2018 HDTV 480p 500mb
Download WWE Hell In A Cell 2018 PPV HDTV 720p – Moviesjug
Download Manmarziyaan 2018 Hindi pDVDRip 700MB- Moviesjug
Download Genius (2018) Hindi 720p HDRip x264 1.4GB ESubs
Download Genius (2018) Hindi 480p HDRip x264 400 MB ESubs
Download Robot 2.0 2018 Hindi Dubbed Teaser In HD 1080p 720p 480p 360p
Download Kanchana 3 (Anando Brahma) (2018) Hindi Dubbed 480p HDRip 400 MB
Click Here For Bing.com Searchengine
Click Here For Google.co.in
Click Here For Youtube.com

18+ X X X Uncensored (2018) S01 All 5 Episodes Hindi 720p HDRip x264 800mb

18+ X X X Uncensored (2018) S01 All 5 Episodes Hindi 720p HDRip x264 800mb

18+ X X X Uncensored (2018) S01 All 5 Episodes Hindi 720p HDRip x264 800mb

Leave a Reply

Your email address will not be published. Required fields are marked *