18+ The Anniversary Surprise 2019 S01 Complete 720p/480p Download/Watch Free

DOWNLOAD EVERY SHOWS/SERIAL OF ‘ZEE5’, ‘HOTSTAR’, ‘VOOT’, ‘SONYLIV’, ONLY FROM THIS SITE AFTER 7 DECEMBER 2018

18+ The Anniversary Surprise 2019 S01 Complete 720p/480p
18+ The Anniversary Surprise 2019 S01 Complete 720p/480p,The anniversary new hot web series download in hd openload,The anniversery latest hindi season 1 download for freeanniversary ullu originals new series download in hd for pc mobile,anivarsar ullu webseries download,(18+ The Anniversary Surprise 2019 S01 Complete 720p/480p)ullu originals latest webseries anniversary surprise download in full hd for free,anniversary surprise season 1 episode 1 download,the anniversary surprise season 1 download in full hd for free,eniversary sarprise sason 1 all episodes download anniversary surprise ullu webseries all episodes download,download anniversary surprise complete season in hd,(18+ The Anniversary Surprise 2019 S01 Complete 720p/480p)

-= “MEDIA INFO” =-

18+ The Anniversary Surprise 2019 S01 Complete 720p/480p
WebSeries Name : 18+ The Anniversary Surprise 2019 S01 Complete
Genres: Adult , Romance
Language: Hindi
Quality: 720p/480p WebRip
Size: 170MB/85MB
Stars :Yash Pandit, Shikha Chhabra, Tarun Khem & Swagata

Storyline==}} Raj Malik is in a relationship with Mahi, his secretary. He has also balanced a lovely relation with his wife Priyanka as well. On their marriage anniversary, they plan to go out on a resort. The resort witnesses a murder. Who is murdered? The wife or the secretary or the husband.(18+ The Anniversary Surprise 2019 S01 Complete 720p/480p)

-= “SCREENSHOTS” =-








18+ The Anniversary Surprise 2019 S01 Complete 720p/480p

-= “WATCH ONLINE AND DOWNLOAD LINKS” =-

18+ The Anniversary Surprise 2019 S01 Complete 720p/480p

-= “Watch Online Links” =-

(Use “Google Chrome” Browser For Better Online Watch Or Stream)

-= “720p Watch Online Links” =-

“EPISODE 01 Watch online 720p”

Watch From Rapidvideo 720p
Watch From Vup 720p
Watch From Flix555 720p
Watch From Filescdn  720p
Watch From Nxload 720p

“EPISODE 02 Watch online 720p”

Watch From Rapidvideo 720p
Watch From Vup 720p
Watch From Flix555 720p
Watch From Filescdn  720p
Watch From Nxload 720p

“EPISODE 03 Watch online 720p”

Watch From Rapidvideo 480p
Watch From Vup 480p
Watch From Flix555 480p
Watch From Filescdn  480p
Watch From Nxload 480p

-= “480p Watch Online Links” =-

“EPISODE 01 Watch online 480p”

Watch From Rapidvideo 480p
Watch From Vup 480p
Watch From Flix555 480p
Watch From Filescdn  480p
Watch From Nxload 480p

“EPISODE 02 Watch online 480p”

Watch From Rapidvideo 480p
Watch From Vup 480p
Watch From Flix555 480p
Watch From Filescdn  480p
Watch From Nxload 480p

“EPISODE 03 Watch online 480p”

Watch From Rapidvideo 480p
Watch From Vup 480p
Watch From Flix555 480p
Watch From Filescdn  480p
Watch From Nxload 480p

-= “Download Links” =-

-= “720P Download Links” =-

“EPISODE 01 Download 720p”

Download From Clicknupload
Download From Uploadfiles
Download From Flix555 720p
Download From Filescdn  720p

“EPISODE 02 Download 720p”

Download From Clicknupload
Download From Uploadfiles
Download From Flix555 720p
Download From Filescdn  720p

“EPISODE 03 Download 720p”

Download From Clicknupload
Download From Uploadfiles
Download From Filescdn
Download From Flix555

-= “480P Download Links” =-

“EPISODE 01 Download 480p”

Download From Clicknupload
Download From Uploadfiles
Download From Flix555 480p
Download From Filescdn  480p

“EPISODE 02 Download 480p”

Download From Clicknupload
Download From Uploadfiles
Download From Flix555 480p
Download From Filescdn  480p

“EPISODE 03 Download 480p”

Download From Clicknupload
Download From Uploadfiles
Download From Filescdn
Download From Flix555

Thanks for Downloading…………

18+ The Anniversary Surprise 2019 S01 Complete 720p/480p

-= “Visit Our Other Popular Post To Related This” =-

Downlolad Sanju (2018) Hindi HDTVRip 480p x264 400 MB ESub Free
Download Jalebi 2018 Hindi Full Movie PDVDRip 700MB Free Moviesjug
Download Manmarziyaan 2018 Hindi pDVDRip 700MB- Moviesjug
Download Genius (2018) Propper Audio Hindi 720p HDRip x264 1.4GB ESubs
Rampage (2018) Dual Audio ORG 720p BRRip Hindi English DD 5.1ch 1GB
Click Here For Bing.com Searchengine
Click Here For Google.co.in
Click Here For Youtube.com

-= “Video And Audio Full Details (Properties)” =- 720p

General
18+ The Anniversary Surprise 2019 S01 Complete 720p/480p
Format : Matroska
Format version : Version 4 / Version 2
File size : 182 MiB
Duration : 13 min 7 s
Overall bit rate : 1 936 kb/s
Movie name : 18+ The Anniversary Surprise 2019 S01 Complete 720p/480p

Video
ID : 1
Format : AVC
Format/Info : Advanced Video Codec
Format profile : [email protected]
Format settings : 3 Ref Frames
Format settings, CABAC : No
Format settings, RefFrames : 3 frames
Codec ID : V_MPEG4/ISO/AVC
Duration : 13 min 7 s
Bit rate : 1 800 kb/s
Width : 1 280 pixels
Height : 720 pixels
Display aspect ratio : 16:9
Frame rate mode : Constant
Frame rate : 25.000 FPS
Color space : YUV
Chroma subsampling : 4:2:0
Bit depth : 8 bits
Scan type : Progressive
Bits/(Pixel*Frame) : 0.078
Stream size : 170 MiB (93%)
Title : 18+ The Anniversary Surprise 2019 S01 Complete 720p/480p
Language : Hindi
Default : Yes
Forced : No

Audio
ID : 2
Format : AAC
Format/Info : Advanced Audio Codec
Format profile : LC
Codec ID : A_AAC-2
Duration : 13 min 7 s
Bit rate : 128 kb/s
Channel(s) : 2 channels
Channel positions : Front: L R
Sampling rate : 48.0 kHz
Frame rate : 46.875 FPS (1024 SPF)
Compression mode : Lossy
Stream size : 12.0 MiB (7%)
Title : 18+ The Anniversary Surprise 2019 S01 Complete 720p/480p
Language : Hindi
Default : Yes
Forced : No

18+ The Anniversary Surprise 2019 S01 Complete 720p/480p

18+ The Anniversary Surprise 2019 S01 Complete 720p/480p

18+ The Anniversary Surprise 2019 S01 Complete 720p/480p
Summary
Article Name
18+ The Anniversary Surprise 2019 S01 Complete 720p/480p
Description
ullu originals latest webseries anniversary surprise download in full hd for free,anniversary surprise season 1 episode 1 download,the anniversary surprise season 1 download in full hd for free,eniversary sarprise sason 1 all episodes download anniversary surprise ullu webseries all episodes download,download anniversary surprise complete season in hd
Author
Publisher Name
Moviesjug.net

Leave a Reply

Your email address will not be published. Required fields are marked *